<?xml version="1.0" standalone="no"?>
<!DOCTYPE svg PUBLIC "-//W3C//DTD SVG 1.1//EN" "http://www.w3.org/Graphics/SVG/1.1/DTD/svg11.dtd" >
<svg xmlns="http://www.w3.org/2000/svg" xmlns:xlink="http://www.w3.org/1999/xlink" version="1.1">
<metadata>
Created by FontForge 20200427 at Tue Nov  4 22:06:36 2014
 By www
Copyright (c) 2012 by Jonathan Hill. All rights reserved.
</metadata>
<defs>
<font id="ReznikW00-Bold" horiz-adv-x="566" >
  <font-face 
    font-family="ReznikW00-Bold"
    font-weight="700"
    font-stretch="normal"
    units-per-em="1000"
    panose-1="1 0 0 0 0 0 0 0 0 0"
    ascent="800"
    descent="-200"
    x-height="540"
    cap-height="700"
    bbox="-61 -200 1159 1022"
    underline-thickness="50"
    underline-position="-175"
    unicode-range="U+0020-FB02"
  />
<missing-glyph horiz-adv-x="500" 
d="M0 700h500v-700h-500v700zM420 650h-340l170 -255zM450 95v510l-170 -255zM420 50l-170 255l-170 -255h340zM50 95l170 255l-170 255v-510z" />
    <glyph glyph-name="uniFB01" unicode="fi" horiz-adv-x="600" 
d="M80 587q0 75 38.5 115t107.5 46q8 1 15.5 1.5t15.5 0.5q44 0 91 -12l-8 -84q-26 3 -46 3q-41 0 -57.5 -16t-16.5 -54v-47h329v-540h-139v446h-190v-446h-139v446h-57v94h57zM408 594v106h142v-106h-142z" />
    <glyph glyph-name="uniFB02" unicode="fl" horiz-adv-x="596" 
d="M81 586q0 75 38.5 115t107.5 46q8 1 15.5 1.5t15.5 0.5q40 0 89 -11h202v-738h-139v654h-82q-21 3 -38 3q-38 0 -54 -16.5t-16 -53.5v-47h102v-94h-102v-446h-139v446h-57v94h57v46z" />
    <glyph glyph-name="f_f.liga" unicode="ff" horiz-adv-x="703" 
d="M79 587q0 75 38.5 115t107.5 46q8 1 15.5 1.5t15.5 0.5q44 0 91 -12l-8 -84q-26 3 -46 3q-41 0 -57.5 -16t-16.5 -54v-47h212v47q0 75 38.5 115t107.5 46q8 1 15.5 1.5t15.5 0.5q44 0 91 -12l-8 -84q-26 3 -46 3q-41 0 -57.5 -16t-16.5 -54v-47h102v-94h-102v-446h-139
v446h-212v-446h-139v446h-57v94h57z" />
    <glyph glyph-name="f_f_i.liga" unicode="ffi" horiz-adv-x="951" 
d="M79 587q0 75 38.5 115t107.5 46q8 1 15.5 1.5t15.5 0.5q44 0 91 -12l-8 -84q-26 3 -46 3q-41 0 -57.5 -16t-16.5 -54v-47h212v47q0 75 38.5 115t107.5 46q8 1 15.5 1.5t15.5 0.5q44 0 91 -12l-8 -84q-26 3 -46 3q-41 0 -57.5 -16t-16.5 -54v-47h329v-540h-139v446h-190
v-446h-139v446h-212v-446h-139v446h-57v94h57zM758 594v106h142v-106h-142z" />
    <glyph glyph-name="f_f_l.liga" unicode="ffl" horiz-adv-x="947" 
d="M80 586q0 75 38.5 115t107.5 46q8 1 15.5 1.5t15.5 0.5q44 0 91 -12l-8 -84q-26 3 -46 3q-41 0 -57.5 -16t-16.5 -54v-47h212v47q0 75 38.5 115t107.5 46q8 1 15.5 1.5t15.5 0.5q40 0 89 -11h202v-738h-139v654h-70q-26 3 -46 3q-41 0 -57.5 -16t-16.5 -54v-47h102v-94
h-102v-446h-139v446h-212v-446h-139v446h-57v94h57z" />
    <glyph glyph-name=".notdef" horiz-adv-x="500" 
d="M0 700h500v-700h-500v700zM420 650h-340l170 -255zM450 95v510l-170 -255zM420 50l-170 255l-170 -255h340zM50 95l170 255l-170 255v-510z" />
    <glyph glyph-name=".null" horiz-adv-x="0" 
 />
    <glyph glyph-name="nonmarkingreturn" horiz-adv-x="333" 
 />
    <glyph glyph-name="space" unicode=" " horiz-adv-x="300" 
 />
    <glyph glyph-name="exclam" unicode="!" horiz-adv-x="225" 
d="M52 198l-15 502h150l-15 -502h-120zM42 0v136h140v-136h-140z" />
    <glyph glyph-name="quotedbl" unicode="&#x22;" horiz-adv-x="346" 
d="M51 496l-14 220h111l-14 -220h-83zM209 496l-14 220h112l-14 -220h-84z" />
    <glyph glyph-name="numbersign" unicode="#" horiz-adv-x="649" 
d="M611 526l-12 -100h-99l-22 -151h99l-12 -100h-99l-25 -176h-110l25 176h-106l-25 -176h-110l25 176h-100l12 100h100l22 151h-100l12 100h100l24 174h110l-24 -174h106l24 174h110l-24 -174h99zM261 275h106l22 151h-106z" />
    <glyph glyph-name="dollar" unicode="$" horiz-adv-x="579" 
d="M353 702q49 -7 81.5 -24t51 -43t26.5 -61.5t8 -78.5h-130q-1 29 -6 50t-16.5 35t-31.5 20.5t-50 6.5q-59 0 -80 -26.5t-21 -81.5q0 -26 5.5 -42.5t17.5 -26t32.5 -15t50.5 -8.5q63 -9 110 -21t78 -34.5t46.5 -59t15.5 -93.5q0 -40 -9.5 -74t-31.5 -60t-57.5 -43.5
t-87.5 -23.5v-67h-132v67q-97 11 -140.5 60.5t-45.5 139.5h144q3 -54 27 -78.5t81 -24.5q60 0 84.5 26t24.5 78q0 29 -6 47.5t-19.5 30t-34 17.5t-48.5 9q-67 9 -113.5 21t-75.5 33t-42 55.5t-13 90.5q0 43 8.5 77.5t28.5 60t54.5 41.5t85.5 22v66h132z" />
    <glyph glyph-name="percent" unicode="%" horiz-adv-x="833" 
d="M108 -17l491 734h124l-491 -734h-124zM198 713q57 0 89.5 -15t48 -39.5t19.5 -56.5t4 -66t-4 -66t-19.5 -56.5t-48 -39.5t-89.5 -15t-89 15t-47.5 39.5t-19.5 56.5t-4 66t4 66t19.5 56.5t47.5 39.5t89 15zM198 649q-22 0 -34.5 -6t-19 -19t-8 -35t-1.5 -53t1.5 -52.5
t8 -35t19 -19.5t33.5 -6t33.5 6t19 19.5t8 35t1.5 52.5t-1.5 52.5t-7.5 35t-18 19.5t-33 6h-1zM634 344q57 0 89.5 -15t48 -39.5t19.5 -56.5t4 -66t-4 -66t-19.5 -56.5t-48 -39.5t-89.5 -15t-89.5 15t-48 39.5t-19.5 56.5t-4 66t4 66t19.5 56.5t48 39.5t89.5 15zM634 279
q-21 0 -33.5 -6t-19 -19.5t-8 -35t-1.5 -52.5t1.5 -52.5t8 -35t19 -19.5t33.5 -6t33.5 6t19 19.5t8 35t1.5 52.5t-1.5 53t-8 35.5t-19 19.5t-33.5 6v-1z" />
    <glyph glyph-name="ampersand" unicode="&#x26;" horiz-adv-x="695" 
d="M136 419q-14 16 -23.5 29t-14.5 27t-7 30t-2 39q0 57 18.5 89.5t47.5 49t65.5 21t71.5 4.5t70.5 -4.5t64.5 -21t47.5 -49t18.5 -89.5q0 -32 -5 -54.5t-15.5 -39t-25.5 -28t-35 -21.5l-72 -33l155 -170q11 25 11 59v54h108l-6 -117q-1 -29 -6.5 -50.5t-14.5 -38.5l74 -78
v-27h-126l-24 26q-21 -13 -44.5 -20t-48.5 -10.5t-50.5 -4t-49.5 -0.5q-29 0 -61.5 1t-64 7.5t-60 19t-50 36t-34.5 58.5t-13 86q0 39 8 67.5t22 49.5t33 36t41 27l23 11zM327 466q7 3 14.5 7.5t13.5 13.5t10 23t4 36q0 27 -4.5 42.5t-13.5 23.5t-23.5 10.5t-33.5 2.5
q-20 0 -34.5 -2.5t-24 -10.5t-14 -23.5t-4.5 -42.5q0 -29 8 -44.5t16 -25.5l31 -35zM216 300q-22 -16 -37 -37t-15 -62q0 -39 9 -63t28 -37.5t48.5 -18t69.5 -4.5q37 0 67.5 3.5t51.5 19.5l-198 212z" />
    <glyph glyph-name="quotesingle" unicode="'" horiz-adv-x="186" 
d="M51 496l-14 220h112l-14 -220h-84z" />
    <glyph glyph-name="parenleft" unicode="(" horiz-adv-x="343" 
d="M304 721q-30 -41 -53.5 -81.5t-40.5 -82.5q-26 -63 -37.5 -124.5t-11.5 -124.5t11.5 -124.5t37.5 -124.5q35 -84 94 -163l-101 -33q-76 94 -117 194q-26 63 -38 125t-12 125t12 125t38 125q41 100 118 195z" />
    <glyph glyph-name="parenright" unicode=")" horiz-adv-x="343" 
d="M138 750q76 -96 117 -195q26 -63 38 -125t12 -125t-12 -125t-38 -125q-41 -100 -117 -194l-101 33q59 79 94 163q26 63 37.5 124.5t11.5 124.5t-11.5 124.5t-37.5 124.5q-17 42 -40.5 82.5t-53.5 81.5z" />
    <glyph glyph-name="asterisk" unicode="*" horiz-adv-x="520" 
d="M445 627l38 -117l-136 -36l89 -109l-100 -72l-76 118l-76 -118l-100 72l89 109l-136 36l38 117l131 -51l-8 140h123l-8 -140z" />
    <glyph glyph-name="plus" unicode="+" horiz-adv-x="547" 
d="M510 316v-94h-189v-189h-94v189h-189v94h189v189h94v-189h189z" />
    <glyph glyph-name="comma" unicode="," horiz-adv-x="227" 
d="M37 -101v210h152l-54 -210h-98z" />
    <glyph glyph-name="hyphen" unicode="-" horiz-adv-x="350" 
d="M37 234v115h275v-115h-275z" />
    <glyph glyph-name="period" unicode="." horiz-adv-x="215" 
d="M38 0v140h140v-140h-140z" />
    <glyph glyph-name="slash" unicode="/" horiz-adv-x="422" 
d="M28 -17l243 734h123l-243 -734h-123z" />
    <glyph glyph-name="zero" unicode="0" horiz-adv-x="581" 
d="M291 690q88 0 137.5 -23.5t73.5 -64t29.5 -95.5t5.5 -117v-51v-50q0 -62 -5.5 -116.5t-29.5 -95t-73.5 -64.5t-137.5 -24t-137.5 24t-73.5 64.5t-29.5 95t-5.5 116.5v50v51q0 62 5.5 117t29.5 95.5t73.5 64t137.5 23.5zM291 588q-38 0 -58.5 -12.5t-31 -38.5t-12.5 -65
t-2 -92v-40v-40q0 -53 2 -92t12.5 -65t31 -38.5t58.5 -12.5q37 0 58 12.5t31.5 38.5t12.5 65t2 92v40v40q0 53 -2 92t-12.5 65t-31.5 38.5t-58 12.5z" />
    <glyph glyph-name="one" unicode="1" horiz-adv-x="350" 
d="M147 0v565l-107 -19l-19 101l186 33h84v-680h-144z" />
    <glyph glyph-name="two" unicode="2" horiz-adv-x="538" 
d="M38 478q0 54 10 94t35.5 66t68.5 39t111 13q69 1 114.5 -12.5t73.5 -39.5t39.5 -63.5t11.5 -84.5q0 -43 -14 -75t-39 -56t-59 -42t-74 -32q-32 -11 -59 -23t-46.5 -27.5t-30.5 -35.5t-11 -47v-50h331v-102h-470v126q0 56 17 95t45 66.5t63.5 46t73.5 33.5q66 21 100 48
t34 75t-21.5 72.5t-75.5 24.5q-57 0 -78 -26t-22 -82z" />
    <glyph glyph-name="three" unicode="3" horiz-adv-x="557" 
d="M38 515q0 59 17.5 94t48.5 53t72.5 23t89.5 5t89.5 -5.5t72 -23.5t48 -53.5t17.5 -95.5q0 -38 -6.5 -66t-19 -47.5t-30 -31.5t-39.5 -19q25 -6 45.5 -17.5t35 -32t22.5 -51t8 -73.5q0 -62 -18.5 -98t-51 -55.5t-76.5 -25t-95 -5.5t-94.5 5.5t-76 24.5t-51.5 55t-19 96v32
h137v-12q0 -32 6.5 -52.5t19 -32t32.5 -15.5t47 -4q28 0 47.5 4t32.5 16t19 33t6 55t-6 55t-19 33t-32.5 16t-47.5 4h-51v85h51q26 0 44 4.5t29.5 16.5t17 32t5.5 52t-5.5 52.5t-17 32t-30 16t-44.5 4.5t-44.5 -4.5t-30.5 -15.5t-17.5 -31.5t-5.5 -51.5v-12h-130z" />
    <glyph glyph-name="four" unicode="4" horiz-adv-x="580" 
d="M546 245v-85h-76v-160h-127v160h-318v93l230 429h216v-437h75zM142 245h200v349h-15z" />
    <glyph glyph-name="five" unicode="5" horiz-adv-x="553" 
d="M188 584l-15 -175q28 13 61.5 23.5t66.5 10.5q49 0 88 -5.5t66.5 -27t42.5 -63.5t15 -115q0 -67 -10.5 -113t-37.5 -74.5t-74 -41.5t-120 -13q-51 0 -95 6.5t-76 26.5t-51 57.5t-19 100.5v31h137q0 -40 6 -64.5t18.5 -38t32.5 -18t48 -4.5t48 5t33 18.5t18.5 37t5.5 61.5
q0 51 -5.5 82t-17.5 48t-31.5 22.5t-47.5 5.5q-29 0 -54.5 -11t-48.5 -25h-129l30 349h408v-95z" />
    <glyph glyph-name="six" unicode="6" 
d="M189 372q37 17 73 28t73 11q36 0 72 -6t64 -25.5t45.5 -57.5t17.5 -102q-1 -51 -10.5 -93t-36 -73t-73.5 -48t-123 -17q-87 0 -136 22.5t-73 62.5t-29.5 93.5t-5.5 116.5v55v55q0 63 5.5 116.5t29.5 93.5t73 62.5t136 22.5q68 0 111 -13.5t67.5 -39t33.5 -63t9 -85.5
h-126q-2 49 -21.5 74t-73.5 25q-37 0 -57.5 -11t-30.5 -32t-12.5 -50.5t-2.5 -66.5zM292 330q-29 0 -53.5 -11t-50.5 -26v-74q1 -30 4.5 -53.5t14 -40t31 -25.5t54.5 -9t54.5 10t31 28t14 42.5t4.5 54.5q0 34 -6 54.5t-18.5 31.5t-32.5 15t-47 4v-1z" />
    <glyph glyph-name="seven" unicode="7" horiz-adv-x="487" 
d="M265 0h-150l201 578h-288v102h438v-87z" />
    <glyph glyph-name="eight" unicode="8" horiz-adv-x="597" 
d="M299 691q49 0 91 -5.5t73 -23.5t48.5 -53.5t17.5 -95.5q0 -76 -26 -112.5t-69 -50.5q27 -6 48.5 -18t36.5 -32.5t23.5 -51t8.5 -74.5q0 -62 -19.5 -98t-53.5 -55.5t-80.5 -25t-99.5 -5.5t-99.5 5.5t-80.5 25t-53.5 55.5t-19.5 98q0 44 8.5 74.5t23.5 51t36.5 32.5
t48.5 18q-22 7 -39.5 19t-30 31.5t-19 47t-6.5 65.5q0 60 17.5 95t49 53.5t73.5 23.5t92 5v1zM299 599q-27 0 -46.5 -4.5t-31.5 -16t-18 -32t-6 -52.5t6 -52.5t18 -32t31.5 -16t46.5 -4.5t46.5 4.5t31.5 16t18 32t6 52.5t-6 52.5t-18 32t-31.5 16t-46.5 4.5zM299 303
q-29 0 -49.5 -4.5t-34 -16.5t-19.5 -33t-6 -54t6 -54t19.5 -33t33.5 -16t49 -4t49.5 4t34 15.5t20 32.5t6.5 55t-6 55t-19.5 33t-34 16t-49.5 4z" />
    <glyph glyph-name="nine" unicode="9" 
d="M377 307q-37 -17 -73 -28t-73 -11q-36 0 -72 6t-64 25.5t-45.5 57.5t-17.5 102q1 51 10.5 93t36 73t73.5 48t123 17q87 0 136 -22.5t73 -62.5t29.5 -93.5t5.5 -116.5v-55v-55q0 -63 -5.5 -116.5t-29.5 -93.5t-73 -62.5t-136 -22.5q-68 0 -111 13.5t-67.5 39t-33.5 63
t-9 85.5h126q2 -49 21.5 -74t73.5 -25q37 0 57.5 11t30.5 32t12.5 50.5t2.5 66.5zM275 588q-34 0 -54.5 -9.5t-31 -27t-14 -41.5t-4.5 -54q0 -34 6 -55t18.5 -32.5t32.5 -15.5t47 -4q29 0 53.5 11t50.5 26v74q-1 30 -4.5 53.5t-14 40t-31 25.5t-54.5 9z" />
    <glyph glyph-name="colon" unicode=":" horiz-adv-x="215" 
d="M38 410v140h140v-140h-140zM38 0v140h140v-140h-140z" />
    <glyph glyph-name="semicolon" unicode=";" horiz-adv-x="227" 
d="M38 410v140h140v-140h-140zM38 -101v210h152l-54 -210h-98z" />
    <glyph glyph-name="less" unicode="&#x3c;" horiz-adv-x="425" 
d="M142 274l245 -138v-112l-350 202v95l350 202v-112z" />
    <glyph glyph-name="equal" unicode="=" horiz-adv-x="547" 
d="M37 341v94h473v-94h-473zM37 125v94h473v-94h-473z" />
    <glyph glyph-name="greater" unicode="&#x3e;" horiz-adv-x="425" 
d="M387 224l-350 -202v112l245 138l-245 138v112l350 -202v-96z" />
    <glyph glyph-name="question" unicode="?" horiz-adv-x="528" 
d="M35 507q0 48 10.5 86t35 64.5t66.5 40t107 13.5q66 1 110.5 -12.5t72 -40t39 -64t11.5 -83.5q0 -39 -4.5 -69.5t-17.5 -53t-36.5 -37.5t-60.5 -24q-23 -7 -38.5 -12t-25.5 -11.5t-14.5 -16t-4.5 -24.5v-45h-128v76q0 43 26.5 61.5t70.5 27.5q31 6 50.5 15t31 21.5
t16 30.5t4.5 42q0 27 -4 48t-15 35.5t-30.5 22t-50.5 7.5t-50 -6.5t-30 -19t-15.5 -31t-4.5 -42.5zM151 0v136h140v-136h-140z" />
    <glyph glyph-name="at" unicode="@" horiz-adv-x="713" 
d="M646 40q-11 -31 -33.5 -56.5t-57.5 -44t-84 -29t-114 -10.5q-77 0 -130.5 13.5t-89 37.5t-55.5 57t-29.5 72.5t-12 84t-2.5 91.5v48v48q0 47 2.5 91.5t12 84t29.5 73t55.5 57.5t89 37.5t130.5 13.5q80 0 135 -14.5t90.5 -41t55 -62.5t28 -79t10 -91.5t1.5 -99.5v-43
q0 -53 -16.5 -83.5t-46 -45.5t-70.5 -19t-90 -5h-28l-7 25q-19 -12 -43.5 -21.5t-53.5 -9.5q-47 0 -73.5 13.5t-39.5 37.5t-16 58t-3 75q0 42 3.5 77t17 59.5t41.5 37.5t78 12q27 -1 50.5 -9t38.5 -16l7 25h78v-292l15 1q13 1 23.5 4t17.5 11t11 23.5t4 40.5v44
q0 82 -3.5 141.5t-23.5 98t-64.5 57t-126.5 18.5q-79 0 -123 -19.5t-65 -57t-25.5 -91.5t-4.5 -122v-44v-44q0 -68 4.5 -122t25.5 -91.5t65 -57t123 -19.5q51 0 84 6t55 19t36 33t28 48zM406 404q-12 7 -26.5 13t-28.5 6q-21 0 -33 -6t-18 -20t-7.5 -36t-1.5 -54t1.5 -54
t7.5 -36t18 -20t33 -6q14 0 28 6t26 14z" />
    <glyph glyph-name="A" unicode="A" horiz-adv-x="598" 
d="M430 0l-34 160h-197l-34 -160h-145l165 700h227l165 -700h-147zM211 262h170l-74 336h-21z" />
    <glyph glyph-name="B" unicode="B" horiz-adv-x="594" 
d="M271 700q55 0 103.5 -1.5t84.5 -17t57 -52t21 -106.5q0 -41 -6 -68.5t-17.5 -46t-27 -30t-34.5 -21.5q24 -8 43.5 -19.5t33.5 -31.5t21.5 -51t7.5 -76q0 -68 -21 -104.5t-57.5 -53t-85.5 -19t-104 -2.5h-231v700h212zM200 396h108q21 0 38.5 3.5t30 14t19.5 30t7 53.5
q0 37 -8 57.5t-23 30t-36 11t-46 1.5h-88zM199 102h105q24 0 44 2.5t34 13t22 31t8 57.5t-8 58t-22 31.5t-34 12.5t-44 2h-104z" />
    <glyph glyph-name="C" unicode="C" horiz-adv-x="580" 
d="M543 233q0 -48 -7 -92.5t-32 -78t-72 -54t-127 -20.5q-92 0 -143.5 24.5t-77.5 65t-32 93.5t-6 111v66v66q0 58 6 111t32 93.5t77.5 65t143.5 24.5q80 0 127 -20.5t72 -54t32 -78t7 -92.5h-137q0 37 -3.5 64t-14.5 44.5t-31 26t-52 8.5q-41 0 -63.5 -13t-33.5 -39
t-13.5 -66t-2.5 -94v-44v-44q0 -54 2.5 -94t13.5 -66t33.5 -39t63.5 -13q32 0 52 8.5t31 26t14.5 44.5t3.5 64z" />
    <glyph glyph-name="D" unicode="D" horiz-adv-x="598" 
d="M294 700q93 0 145.5 -23t77.5 -63.5t30.5 -96t5.5 -119.5v-48v-48q0 -65 -5.5 -120t-30.5 -95.5t-77.5 -63.5t-145.5 -23h-235v700h235zM199 102h94q43 0 67 11.5t36 36t14.5 62t2.5 90.5v48v48q0 52 -2.5 90t-14 62.5t-35.5 36t-67 11.5h-94z" />
    <glyph glyph-name="E" unicode="E" horiz-adv-x="495" 
d="M204 597v-192h230v-102h-230v-201h262v-102h-407v700h407v-102z" />
    <glyph glyph-name="F" unicode="F" horiz-adv-x="463" 
d="M204 597v-209h198v-102h-198v-286h-145v700h375v-102z" />
    <glyph glyph-name="G" unicode="G" horiz-adv-x="601" 
d="M459 59q-11 -15 -25.5 -28t-35 -22.5t-48.5 -15t-67 -5.5q-57 0 -97 12.5t-66 35t-41.5 52.5t-22.5 65t-9 73t-2 77v45v45q0 59 5.5 115t31 100t77.5 71t145 27q75 0 121.5 -18t72 -48.5t34.5 -71.5t9 -86h-136q0 31 -4.5 54t-15.5 38t-30.5 22.5t-50.5 7.5
q-41 0 -63.5 -13t-33.5 -39t-13.5 -66t-2.5 -94v-44v-44q0 -54 2.5 -94t13.5 -66t33.5 -39t63.5 -13q33 0 53.5 9t32 27t15.5 45.5t5 65.5v68h-100v79h236v-386h-78z" />
    <glyph glyph-name="H" unicode="H" horiz-adv-x="621" 
d="M416 0v304h-212v-304h-145v700h145v-294h212v294h145v-700h-145z" />
    <glyph glyph-name="I" unicode="I" horiz-adv-x="263" 
d="M59 0v700h145v-700h-145z" />
    <glyph glyph-name="J" unicode="J" horiz-adv-x="390" 
d="M330 156q0 -50 -15 -82.5t-40.5 -51t-58.5 -25.5t-70 -7q-35 0 -67 3.5t-55 7.5l9 97q16 -1 30 -1.5t27 -0.5q48 0 72 15.5t24 66.5v419h-119v102h264z" />
    <glyph glyph-name="K" unicode="K" horiz-adv-x="592" 
d="M203 346v-346h-145v700h145v-338l195 338h155l-206 -346l218 -354h-155z" />
    <glyph glyph-name="L" unicode="L" horiz-adv-x="434" 
d="M410 102v-102h-351v700h145v-598h206z" />
    <glyph glyph-name="M" unicode="M" horiz-adv-x="796" 
d="M608 0v558h-6l-170 -558h-70l-170 558h-7v-558h-130v700h200l141 -468l141 468h200v-700h-129z" />
    <glyph glyph-name="N" unicode="N" horiz-adv-x="619" 
d="M413 0l-220 494h-6v-494h-132v700h161l211 -481h6v481h132v-700h-152z" />
    <glyph glyph-name="O" unicode="O" horiz-adv-x="609" 
d="M304 709q93 0 145 -27t77.5 -71t31 -100t5.5 -115v-45v-45q0 -59 -5.5 -115t-31 -100t-77.5 -71t-145 -27t-145 27t-77.5 71t-31 100t-5.5 115v45v45q0 59 5.5 115t31 100t77.5 71t145 27zM304 607q-41 0 -63.5 -13t-33.5 -39t-13.5 -66t-2.5 -94v-44v-44q0 -54 2.5 -94
t13.5 -66t33.5 -39t63.5 -13q40 0 63 13t34 39t13.5 66t2.5 94v44v44q0 54 -2.5 94t-13.5 66t-34 39t-63 13z" />
    <glyph glyph-name="P" unicode="P" horiz-adv-x="583" 
d="M238 700h49q57 0 104 -5t80.5 -26.5t52 -66.5t18.5 -124q0 -82 -21.5 -127t-59.5 -66t-90.5 -25t-113.5 -4h-55v-256h-143v700h179zM199 341h67q30 0 55.5 2.5t44 14.5t28.5 38.5t10 74.5t-10 74t-28 38.5t-42.5 15t-54.5 2.5h-69z" />
    <glyph glyph-name="Q" unicode="Q" horiz-adv-x="614" 
d="M400 4q-20 -6 -43.5 -9.5t-52.5 -3.5q-93 0 -145 27t-77.5 71t-31 100t-5.5 115v45v45q0 59 5.5 115t31 100t77.5 71t145 27t145 -27t77.5 -71t31 -100t5.5 -115v-45v-45q0 -37 -1.5 -72.5t-8.5 -68.5t-20.5 -61t-37.5 -50l73 -104l-86 -61zM304 606q-41 0 -63.5 -13
t-33.5 -39t-13.5 -66t-2.5 -94v-44v-44q0 -54 2.5 -94t13.5 -66t33.5 -39t63.5 -13q40 0 63 13t34 39t13.5 66t2.5 94v44v44q0 54 -2.5 94t-13.5 66t-34 39t-63 13z" />
    <glyph glyph-name="R" unicode="R" horiz-adv-x="602" 
d="M256 700q66 0 119.5 -3.5t91.5 -23.5t59 -64t21 -126q0 -49 -8 -83.5t-22.5 -58.5t-35.5 -38t-48 -22l129 -281h-149l-111 269q-11 -2 -23 -2h-26h-51v-267h-143v700h197zM201 346h66q30 0 55.5 2t44 13.5t28.5 37.5t10 74t-10 74t-28.5 37.5t-43.5 13.5t-55 2h-67v-254z
" />
    <glyph glyph-name="S" unicode="S" horiz-adv-x="563" 
d="M170 196q3 -54 27 -78.5t81 -24.5q60 0 84.5 26t24.5 78q0 29 -6 47.5t-19.5 30t-34 17.5t-48.5 9q-67 9 -113.5 21t-75.5 33t-42 55.5t-13 90.5q0 49 11 87t38 64.5t73 40.5t116 14q71 0 117 -14.5t73 -42t37.5 -67t10.5 -89.5h-130q-1 29 -6 50t-16.5 35t-31 20.5
t-49.5 6.5q-59 0 -80 -26.5t-21 -81.5q0 -26 5.5 -42.5t17.5 -26t32.5 -15t50.5 -8.5q63 -9 110 -21t78 -34.5t46.5 -59t15.5 -93.5q0 -46 -13 -84t-42.5 -65t-77.5 -42t-119 -15q-132 0 -191 50t-61 155z" />
    <glyph glyph-name="T" unicode="T" horiz-adv-x="497" 
d="M321 598v-598h-145v598h-152v102h449v-102h-152z" />
    <glyph glyph-name="U" unicode="U" horiz-adv-x="611" 
d="M552 330q0 -20 0.5 -40t0.5 -40q0 -52 -6.5 -99t-31.5 -82.5t-74.5 -56.5t-135.5 -21t-135.5 21t-74.5 56.5t-31.5 82.5t-6.5 99q0 20 0.5 40t0.5 40v369h145v-369v-85q0 -42 3 -71.5t13.5 -47.5t31 -26.5t56.5 -8.5t56.5 8.5t31 26.5t13.5 47.5t3 71.5v85v369h145z" />
    <glyph glyph-name="V" unicode="V" horiz-adv-x="587" 
d="M184 0l-164 700h145l118 -590h20l118 590h145l-164 -700h-218z" />
    <glyph glyph-name="W" unicode="W" horiz-adv-x="915" 
d="M556 0l-100 449l-101 -449h-192l-136 700h147l91 -590h14l115 590h125l115 -590h14l91 590h147l-136 -700h-194z" />
    <glyph glyph-name="X" unicode="X" horiz-adv-x="571" 
d="M549 0h-150l-115 266l-114 -266h-150l173 364l-162 336h150l105 -249l105 249h149l-163 -338z" />
    <glyph glyph-name="Y" unicode="Y" horiz-adv-x="554" 
d="M350 0h-145v237l-184 463h149l107 -319l107 319h149l-182 -457z" />
    <glyph glyph-name="Z" unicode="Z" horiz-adv-x="510" 
d="M186 102h294v-102h-451v92l284 506h-269v102h427v-90z" />
    <glyph glyph-name="bracketleft" unicode="[" horiz-adv-x="307" 
d="M155 664v-716h115v-85h-232v887h232v-85z" />
    <glyph glyph-name="backslash" unicode="\" horiz-adv-x="422" 
d="M271 -17l-243 734h123l243 -734h-123z" />
    <glyph glyph-name="bracketright" unicode="]" horiz-adv-x="307" 
d="M38 -136v85h115v716h-115v86h232v-887h-232z" />
    <glyph glyph-name="asciicircum" unicode="^" horiz-adv-x="529" 
d="M366 336l-100 259l-100 -259h-127l150 375h153l150 -375h-126z" />
    <glyph glyph-name="underscore" unicode="_" horiz-adv-x="536" 
d="M37 -156v81h461v-81h-461z" />
    <glyph glyph-name="grave" unicode="`" horiz-adv-x="224" 
d="M109 589l-71 127h101l48 -127h-78z" />
    <glyph glyph-name="a" unicode="a" horiz-adv-x="561" 
d="M62 360q0 40 9.5 74.5t34 59.5t68 39.5t111.5 14.5q84 0 130 -17t68.5 -49.5t27 -78t4.5 -102.5v-32v-270h-109l-13 43q-35 -25 -76 -38.5t-77 -14.5q-55 -1 -94 3t-63.5 20t-36 46t-11.5 80q0 35 8.5 64.5t29.5 51t57.5 35t93.5 16.5l153 8q0 41 -2.5 69t-12 45
t-28.5 24.5t-52 7.5q-55 0 -74 -23.5t-19 -74.5zM263 241q-55 -3 -73 -24.5t-19 -59.5q0 -27 5 -42.5t16.5 -24t30 -10.5t46.5 -2q29 0 56.5 14t49.5 28v127z" />
    <glyph glyph-name="b" unicode="b" horiz-adv-x="562" 
d="M191 511q25 14 57 26t68 13q74 2 116 -17t62.5 -55.5t25.5 -89.5t5 -118q0 -64 -4.5 -116t-24.5 -88.5t-60 -56t-110 -19.5q-48 0 -85 16t-68 37l-13 -43h-109v750h139zM190 116q22 -13 46 -23.5t48 -10.5q36 0 56 10.5t30.5 33.5t13 58.5t2.5 86.5t-2.5 86.5t-13 58.5
t-30.5 33.5t-56 10.5q-23 0 -47.5 -10.5t-45.5 -21.5z" />
    <glyph glyph-name="c" unicode="c" horiz-adv-x="538" 
d="M504 196q0 -41 -8.5 -78t-33 -65t-68.5 -44t-115 -16q-86 0 -134 23t-72 61.5t-29.5 89t-5.5 104.5t5.5 104.5t29.5 89t72 61.5t134 23q71 0 115 -16.5t68.5 -44t33 -64.5t8.5 -78h-130q0 30 -4.5 51.5t-15.5 35t-29 20t-46 6.5q-36 0 -57 -10.5t-31 -33.5t-12.5 -59
t-2.5 -86t2.5 -86t12.5 -59t31 -33.5t57 -10.5q28 0 46 6.5t29 20t15.5 35t4.5 51.5z" />
    <glyph glyph-name="d" unicode="d" horiz-adv-x="568" 
d="M409 -1l-13 42q-29 -20 -64 -35.5t-79 -16.5q-74 -2 -116 17.5t-62.5 56t-25.5 89t-5 117.5t5 118t25.5 89.5t62.5 55.5t116 17q36 -1 68 -13t57 -26v240h139v-750zM378 425q-21 11 -45.5 21.5t-47.5 10.5q-36 0 -56 -10.5t-30.5 -33.5t-13 -58.5t-2.5 -86.5t2.5 -86.5
t13 -58.5t30.5 -33.5t56 -10.5q24 0 48 10.5t46 23.5z" />
    <glyph glyph-name="e" unicode="e" horiz-adv-x="555" 
d="M507 15q-54 -8 -108.5 -15t-120.5 -7q-64 0 -109.5 14.5t-74.5 47t-42.5 85.5t-13.5 131q0 54 5.5 104.5t30 89t74 61.5t136.5 23q88 0 136.5 -23t70.5 -62t26 -89.5t4 -104.5v-42h-345q0 -35 3.5 -60t15 -42t32.5 -25t57 -8q24 0 52 0.5t56.5 1.5t54.5 2.5t47 2.5z
M383 313q0 38 -3 66t-12.5 46t-29.5 27t-55 9q-37 0 -58 -9t-32 -27.5t-14.5 -46.5t-3.5 -66v-13h209z" />
    <glyph glyph-name="f" unicode="f" horiz-adv-x="351" 
d="M80 587q0 75 38.5 115t107.5 46q8 1 15.5 1.5t15.5 0.5q44 0 91 -12l-8 -84q-18 2 -33 2.5t-28 -0.5q-32 -2 -45.5 -18.5t-13.5 -50.5v-47h102v-94h-102v-446h-139v446h-57v94h57z" />
    <glyph glyph-name="g" unicode="g" horiz-adv-x="567" 
d="M128 -94q26 -2 61 -2.5t65 -0.5q38 0 62 5t37 19.5t17.5 41t4.5 70.5q-25 -14 -57 -26t-68 -13q-74 -2 -116 16t-62.5 53.5t-25.5 86.5t-5 114q0 65 5 117.5t25.5 89t62.5 55.5t116 18q44 -1 79 -17t64 -36l13 43h109v-498q0 -69 -12.5 -114.5t-39.5 -72.5t-69.5 -37.5
t-102.5 -10.5q-47 0 -90 4t-85 9zM375 425q-22 13 -46 23.5t-48 10.5q-36 0 -56 -10.5t-30.5 -33.5t-13 -58.5t-2.5 -86.5q0 -48 2.5 -82.5t13 -56t30.5 -31.5t56 -10q23 0 47.5 10.5t45.5 21.5z" />
    <glyph glyph-name="h" unicode="h" horiz-adv-x="576" 
d="M195 511q25 14 57 26t68 14h27q64 0 100.5 -17t54.5 -48t22.5 -75t4.5 -98v-313h-139v304q0 45 -2.5 74.5t-13 47.5t-30.5 25.5t-56 7.5q-23 0 -47.5 -10.5t-45.5 -21.5v-427h-139v750h139v-239z" />
    <glyph glyph-name="i" unicode="i" horiz-adv-x="247" 
d="M56 594v106h142v-106h-142zM57 0v540h139v-540h-139z" />
    <glyph glyph-name="j" unicode="j" horiz-adv-x="251" 
d="M58 594v106h142v-106h-142zM198 -31q0 -72 -29.5 -109.5t-85.5 -46.5q-27 -6 -56 -6q-23 0 -45.5 2.5t-42.5 7.5l8 85q13 -1 23.5 -1.5t19.5 -0.5q11 0 16 1q29 2 41 19t12 49v571h139v-571z" />
    <glyph glyph-name="k" unicode="k" 
d="M195 282v-282h-139v750h139v-456l180 246h150l-196 -252l223 -288h-150z" />
    <glyph glyph-name="l" unicode="l" horiz-adv-x="244" 
d="M59 0v750h139v-750h-139z" />
    <glyph glyph-name="m" unicode="m" horiz-adv-x="854" 
d="M172 500q27 17 60.5 33t75.5 18q65 3 101 -11t54 -43q28 18 63 35t78 19h26q62 0 97.5 -17t53 -48t21.5 -75t4 -98v-313h-139v304q0 45 -2.5 74.5t-11.5 47.5t-28 25.5t-52 7.5q-22 0 -45 -10.5t-44 -23.5q5 -26 6.5 -56.5t1.5 -64.5v-304h-121v304q0 45 -2.5 74.5
t-11.5 47.5t-28 25.5t-52 7.5q-22 0 -44.5 -10.5t-42.5 -21.5v-427h-139v540h109z" />
    <glyph glyph-name="n" unicode="n" horiz-adv-x="571" 
d="M172 501q29 17 64.5 32.5t78.5 17.5h27q64 0 100.5 -17t54.5 -48t22.5 -75t4.5 -98v-313h-139v304q0 45 -2.5 74.5t-13 47.5t-30.5 25.5t-56 7.5q-23 0 -47.5 -10.5t-45.5 -21.5v-427h-139v540h109z" />
    <glyph glyph-name="o" unicode="o" horiz-adv-x="567" 
d="M284 548q87 0 136.5 -23t74 -61.5t30 -89t5.5 -104.5t-5.5 -104.5t-30 -89t-74 -61.5t-136.5 -23t-136.5 23t-74 61.5t-30 89t-5.5 104.5t5.5 104.5t30 89t74 61.5t136.5 23zM283 459q-38 0 -59.5 -10.5t-32 -33.5t-13 -59t-2.5 -87t2.5 -87t13 -58.5t32 -33t59.5 -10.5
t60 10.5t32.5 33t13 58.5t2.5 87t-2.5 87t-13 59t-32 33.5t-59.5 10.5h-1z" />
    <glyph glyph-name="p" unicode="p" horiz-adv-x="567" 
d="M177 497q29 20 64 36t79 17q74 1 116 -18t62.5 -55.5t25.5 -89t5 -117.5t-5 -118t-25.5 -89.5t-62.5 -55.5t-116 -17q-36 1 -68 13.5t-57 26.5v-213h-139v723h109zM195 113q21 -11 45.5 -21.5t47.5 -10.5q36 0 56 10.5t30.5 33.5t13 58.5t2.5 86.5t-2.5 86.5t-13 58.5
t-30.5 33.5t-56 10.5q-24 0 -48 -10.5t-46 -23.5z" />
    <glyph glyph-name="q" unicode="q" horiz-adv-x="562" 
d="M371 29q-25 -14 -57 -26t-68 -13q-74 -2 -116 17t-62.5 55.5t-25.5 89.5t-5 118t5 117.5t25.5 89t62.5 55.5t116 18q44 -1 79 -17t64 -36l13 43h109v-723h-139zM372 424q-22 13 -46 23.5t-48 10.5q-36 0 -56 -10.5t-30.5 -33.5t-13 -58.5t-2.5 -86.5t2.5 -86.5t13 -58.5
t30.5 -33.5t56 -10.5q23 0 47.5 10.5t45.5 21.5z" />
    <glyph glyph-name="r" unicode="r" horiz-adv-x="381" 
d="M176 492q27 18 56.5 34t58.5 19q22 3 46 3h30l-9 -98h-30q-24 0 -43 -4q-24 -2 -49 -16t-46 -28v-402h-139v540h109z" />
    <glyph glyph-name="s" unicode="s" horiz-adv-x="539" 
d="M161 171q1 -50 24 -71t78 -21q53 0 76 18.5t23 55.5q0 42 -20.5 61t-74.5 24q-64 7 -108 15.5t-71.5 24.5t-39.5 41.5t-12 65.5q0 38 9.5 68.5t34 51.5t68.5 32.5t113 11.5q71 0 115.5 -11t69.5 -33.5t34.5 -57t9.5 -81.5h-132q0 50 -20.5 72.5t-76.5 22.5
q-52 0 -72.5 -18.5t-20.5 -57.5q0 -18 5 -30t16.5 -20.5t31 -13t48.5 -7.5q61 -8 105 -18t73 -28t43 -45.5t14 -70.5q0 -35 -11.5 -64.5t-39 -51.5t-73 -34t-112.5 -12q-66 0 -110.5 10.5t-72.5 32.5t-40 56t-13 82h129z" />
    <glyph glyph-name="t" unicode="t" horiz-adv-x="363" 
d="M323 540v-94h-109v-287q0 -33 12 -49.5t41 -18.5q5 -1 16 -1q9 0 19.5 0.5t22.5 1.5l8 -92q-29 -4 -56.5 -7.5t-52.5 -3.5q-35 0 -62.5 8.5t-47 28t-29.5 52.5t-10 81v287h-58v94h58v128h139v-128h109z" />
    <glyph glyph-name="u" unicode="u" 
d="M411 0l-13 41q-29 -17 -64.5 -33t-78.5 -18q-74 -3 -115.5 12t-62 46.5t-25.5 76.5t-5 102v313h139v-313q0 -41 2.5 -69t13 -45t30.5 -24.5t56 -7.5q23 0 47.5 10.5t45.5 21.5v427h139v-540h-109z" />
    <glyph glyph-name="v" unicode="v" horiz-adv-x="542" 
d="M169 0l-158 540h147l104 -446h16l104 446h147l-158 -540h-202z" />
    <glyph glyph-name="w" unicode="w" horiz-adv-x="813" 
d="M483 0l-76 363l-77 -363h-186l-129 540h140l81 -446h18l87 446h130l87 -446h18l81 446h140l-129 -540h-185z" />
    <glyph glyph-name="x" unicode="x" horiz-adv-x="541" 
d="M530 0h-147l-112 194l-111 -194h-147l170 280l-162 260h147l103 -180l102 180h147l-162 -260z" />
    <glyph glyph-name="y" unicode="y" horiz-adv-x="547" 
d="M369 22q-25 -78 -55 -122t-74 -65q-29 -15 -65.5 -20.5t-83.5 -5.5h-22t-22 1l8 91q11 -1 21.5 -1.5t20.5 -0.5q23 0 41.5 2.5t34.5 9.5q23 10 41 30.5t37 58.5h-65l-174 540h149l104 -446h16l106 446h147z" />
    <glyph glyph-name="z" unicode="z" horiz-adv-x="507" 
d="M187 94h287v-94h-449v84l278 362h-263v94h426v-84z" />
    <glyph glyph-name="braceleft" unicode="{" horiz-adv-x="397" 
d="M300 665q-34 0 -46.5 -17.5t-12.5 -51.5v-199q0 -26 -9 -51.5t-35 -37.5q25 -9 34.5 -36.5t9.5 -54.5v-199q0 -34 12.5 -51.5t46.5 -16.5h59v-86h-92q-47 0 -75.5 12.5t-43.5 33t-19.5 47.5t-4.5 55v205q0 27 -11 37t-31 10h-45v85h45q20 0 31 10.5t11 37.5v205
q0 28 4.5 55t19.5 48t43.5 33.5t76.5 12.5h92v-85z" />
    <glyph glyph-name="bar" unicode="|" horiz-adv-x="215" 
d="M37 -120v870h140v-870h-140z" />
    <glyph glyph-name="braceright" unicode="}" horiz-adv-x="397" 
d="M129 750q47 0 75.5 -12.5t43.5 -33.5t19.5 -48t4.5 -55v-205q0 -27 11 -37t31 -10h45v-85h-45q-20 0 -31 -10t-11 -37v-205q0 -28 -4.5 -55t-19.5 -47.5t-43.5 -33t-75.5 -12.5h-92v86h59q34 -1 46.5 16.5t12.5 51.5v199q0 13 2 27.5t7 27t13.5 22t21.5 14.5
q-26 12 -35 37.5t-9 51.5v199q0 34 -12.5 51.5t-46.5 17.5h-59v86z" />
    <glyph glyph-name="asciitilde" unicode="~" horiz-adv-x="501" 
d="M34 237q0 76 29 109.5t77 33.5q44 0 104 -35l40 -24q32 -19 56 -19q15 0 27 6q12 7 19.5 20.5t7.5 35.5h68q0 -56 -18 -88.5t-48 -44.5q-20 -9 -44 -9q-43 0 -86 24l-40 24q-44 28 -70 28q-23 0 -36.5 -14t-13.5 -49z" />
    <glyph glyph-name="exclamdown" unicode="&#xa1;" horiz-adv-x="225" 
d="M42 381v136h140v-136h-140zM38 -183l15 502h117l15 -502h-147z" />
    <glyph glyph-name="cent" unicode="&#xa2;" horiz-adv-x="541" 
d="M334 545q52 -7 85.5 -25t52 -44t25.5 -59t7 -70h-130q0 30 -4.5 51.5t-15.5 35t-29 20t-46 6.5q-36 0 -57 -10.5t-31 -33.5t-12.5 -59t-2.5 -86t2.5 -86t12.5 -59t31 -33.5t57 -10.5q28 0 46 6.5t29 20t15.5 35t4.5 51.5h130q0 -37 -7 -70t-25.5 -59t-52 -44t-85.5 -24
v-66h-127v68q-60 9 -94 34.5t-51 61.5t-21 81t-4 93t4 93t21 81t51 61.5t94 35.5v69h127v-65z" />
    <glyph glyph-name="sterling" unicode="&#xa3;" horiz-adv-x="570" 
d="M82 482q-6 28 -6 54q0 80 56 127t166 47q62 0 102.5 -13.5t64.5 -39t33.5 -63t9.5 -85.5h-117q-2 50 -22 74.5t-71 24.5q-45 0 -70.5 -23t-25.5 -67q0 -18 4 -34l18 -88h158v-102h-137l10 -53q2 -12 3.5 -24t1.5 -23q0 -24 -9.5 -46.5t-36.5 -45.5h320v-102h-495v102
q28 12 46.5 25t28.5 27t14 29.5t4 32.5q0 6 -0.5 12t-1.5 13l-9 53h-83v102h62z" />
    <glyph glyph-name="currency" unicode="&#xa4;" horiz-adv-x="738" 
 />
    <glyph glyph-name="yen" unicode="&#xa5;" horiz-adv-x="587" 
d="M518 390v-81h-125l-18 -39l-5 -44h148v-81h-152v-145h-145v145h-154v81h148l-5 43l-18 40h-125v81h97l-127 310h149l107 -319l107 319h149l-127 -310h96z" />
    <glyph glyph-name="brokenbar" unicode="&#xa6;" horiz-adv-x="215" 
d="M37 370v380h140v-380h-140zM37 -120v380h140v-380h-140z" />
    <glyph glyph-name="section" unicode="&#xa7;" horiz-adv-x="561" 
d="M167 41q1 -54 25 -77t83 -23q57 0 81.5 20t24.5 60q0 46 -22 66.5t-79 26.5q-52 6 -95.5 13t-75 22.5t-49.5 43.5t-18 76q-1 51 13.5 88t57.5 58q-38 17 -54.5 44.5t-16.5 75.5q0 41 9.5 73.5t35 55.5t71 35.5t116.5 12.5q73 0 119 -12t71.5 -36.5t35 -62t9.5 -88.5h-132
q0 55 -21.5 79t-82.5 24q-56 0 -77.5 -20.5t-21.5 -62.5q0 -20 5 -33.5t17 -22t32.5 -14t51.5 -8.5q63 -8 108.5 -19t75 -30t44 -49t14.5 -76q0 -42 -15 -76t-51 -57q34 -19 50.5 -49t16.5 -79q0 -38 -12 -70t-40.5 -55t-75 -36.5t-115.5 -13.5q-68 0 -114 11t-74.5 35
t-41 61t-13.5 88zM249 361q-47 -5 -63 -26t-16 -56q0 -20 5.5 -32t18 -20t34 -12t54.5 -7q37 -3 62 -9q30 10 42 29.5t12 47.5q0 24 -7 38.5t-21 23t-36.5 13t-53.5 7.5z" />
    <glyph glyph-name="dieresis" unicode="&#xa8;" horiz-adv-x="343" 
d="M37 604v81h94v-81h-94zM213 604v81h93v-81h-93z" />
    <glyph glyph-name="copyright" unicode="&#xa9;" horiz-adv-x="795" 
d="M397 710q75 0 140.5 -28.5t114 -77t77 -114t28.5 -140.5t-28.5 -140.5t-77 -114t-114 -77t-140.5 -28.5t-140.5 28.5t-114 77t-77 114t-28.5 140.5t28.5 140.5t77 114t114 77t140.5 28.5zM397 627q-57 0 -107 -21.5t-87.5 -59t-59 -87.5t-21.5 -107t21.5 -107t59 -87.5
t87.5 -59t107 -21.5t107 21.5t87.5 59t59 87.5t21.5 107t-21.5 107t-59 87.5t-87.5 59t-107 21.5zM531 289q0 -26 -4 -51.5t-17.5 -45t-40.5 -31.5t-72 -12q-51 0 -80 13.5t-43 36.5t-17.5 52t-3.5 61v36v36q0 31 3.5 60.5t17.5 52.5t43 36.5t80 13.5q45 0 72 -12
t40.5 -31.5t17.5 -44.5t4 -51h-80q0 44 -9.5 61.5t-43.5 17.5q-22 0 -34 -6.5t-18 -20.5t-7.5 -35.5t-1.5 -50.5v-58q0 -27 1.5 -46t7.5 -32t18 -19t33 -6q34 0 43.5 17.5t9.5 61.5z" />
    <glyph glyph-name="ordfeminine" unicode="&#xaa;" horiz-adv-x="359" 
d="M40 590q0 24 6.5 45.5t23 37t44 25t70.5 9.5q58 0 88.5 -13t44 -36t15 -55t1.5 -71v-170h-82l-5 21q-20 -12 -44 -19.5t-45 -7.5q-34 -1 -59 2t-41.5 13.5t-24.5 29.5t-8 51q0 22 5.5 41t19.5 33t38 22.5t61 10.5l83 4q0 20 -1 34.5t-6 23.5t-14.5 13.5t-26.5 4.5
q-27 0 -36.5 -12t-9.5 -38zM171 507q-29 -2 -37.5 -11.5t-8.5 -32.5q0 -28 10 -34.5t39 -6.5q14 0 28 6.5t27 14.5v68z" />
    <glyph glyph-name="guillemotleft" unicode="&#xab;" horiz-adv-x="629" 
d="M173 273l154 -214l-122 -22l-168 236l168 235l121 -22zM438 274l154 -214l-122 -22l-168 236l168 235l121 -22z" />
    <glyph glyph-name="logicalnot" unicode="&#xac;" horiz-adv-x="738" 
 />
    <glyph glyph-name="registered" unicode="&#xae;" horiz-adv-x="795" 
d="M397 710q75 0 140.5 -28.5t114 -77t77 -114t28.5 -140.5t-28.5 -140.5t-77 -114t-114 -77t-140.5 -28.5t-140.5 28.5t-114 77t-77 114t-28.5 140.5t28.5 140.5t77 114t114 77t140.5 28.5zM397 627q-57 0 -107 -21.5t-87.5 -59t-59 -87.5t-21.5 -107t21.5 -107t59 -87.5
t87.5 -59t107 -21.5t107 21.5t87.5 59t59 87.5t21.5 107t-21.5 107t-59 87.5t-87.5 59t-107 21.5zM374 540q33 0 61.5 -1.5t49 -12.5t32 -34.5t11.5 -66.5q0 -50 -16 -74t-43 -33l71 -148h-80l-54 140q-7 -1 -14.5 -1h-15.5h-30v-139h-77v369zM379 355q17 0 30.5 1t23 7
t14.5 19.5t5 37.5t-5 37t-14.5 19t-23 7t-30.5 1h-33v-128z" />
    <glyph glyph-name="macron" unicode="&#xaf;" horiz-adv-x="376" 
d="M37 611v73h301v-73h-301z" />
    <glyph glyph-name="degree" unicode="&#xb0;" horiz-adv-x="399" 
d="M199 815q34 0 63.5 -12.5t51.5 -34.5t34.5 -51.5t12.5 -63.5t-12.5 -63.5t-34.5 -51.5t-51.5 -34.5t-63.5 -12.5t-63.5 12.5t-51.5 34.5t-34.5 51.5t-12.5 63.5t12.5 63.5t34.5 51.5t51.5 34.5t63.5 12.5zM199 734q-33 0 -56.5 -23.5t-23.5 -57.5t23.5 -57.5t56.5 -23.5
t56.5 23.5t23.5 57.5t-23.5 57.5t-56.5 23.5z" />
    <glyph glyph-name="plusminus" unicode="&#xb1;" horiz-adv-x="547" 
d="M510 416v-94h-189v-170h-94v170h-189v94h189v170h94v-170h189zM37 -21v94h473v-94h-473z" />
    <glyph glyph-name="uni00B2" unicode="&#xb2;" horiz-adv-x="357" 
d="M41 591q0 58 30 87t110 29q39 0 65 -8.5t42 -24t23 -37.5t7 -48q0 -25 -8.5 -43.5t-23 -33t-34.5 -25t-42 -18.5q-35 -12 -56 -24t-21 -40v-26h184v-70h-281v77q0 32 10 55t26.5 39t37.5 26.5t42 19.5q35 11 53.5 24.5t18.5 38.5q0 24 -10.5 35.5t-35.5 11.5
q-26 0 -36 -11t-10 -35z" />
    <glyph glyph-name="uni00B3" unicode="&#xb3;" horiz-adv-x="363" 
d="M45 601q0 35 11 56t29.5 32t43.5 14t52 3t52 -3.5t43.5 -14.5t29.5 -32t11 -56q0 -37 -12 -58t-32 -32q24 -10 38.5 -32t14.5 -65q0 -36 -11.5 -58t-31 -33t-46 -14.5t-55.5 -3.5t-55 3.5t-45.5 14.5t-31.5 32t-12 57v24h96v-13q1 -35 13 -43t36 -8q12 0 21 1.5t15 6.5
t9 16t3 29t-3 29t-9 16t-15 6.5t-21 1.5h-39v61h38q11 0 19 1.5t13.5 7t8 16t2.5 27.5q0 35 -10.5 43.5t-33.5 8.5t-34 -8.5t-11 -43.5v-12h-92z" />
    <glyph glyph-name="acute" unicode="&#xb4;" horiz-adv-x="224" 
d="M38 589l48 127h101l-71 -127h-78z" />
    <glyph glyph-name="paragraph" unicode="&#xb6;" horiz-adv-x="700" 
d="M604 619v-775h-116v775h-83v-775h-116v416q-48 2 -93.5 9.5t-80.5 30t-56 65t-21 114.5q0 79 26 123.5t67.5 66.5t92 26.5t100.5 4.5h35h304v-81h-59z" />
    <glyph glyph-name="periodcentered" unicode="&#xb7;" horiz-adv-x="215" 
d="M38 231v140h140v-140h-140z" />
    <glyph glyph-name="cedilla" unicode="&#xb8;" horiz-adv-x="256" 
d="M147 -35q18 0 31.5 -3.5t22.5 -12t14 -23.5t5 -39q0 -28 -6.5 -44t-19 -24t-31 -10t-41.5 -2h-83v48h59q26 0 36 5t10 32q0 26 -10 31t-36 5h-18l22 72h49l-11 -35h7z" />
    <glyph glyph-name="uni00B9" unicode="&#xb9;" horiz-adv-x="246" 
d="M108 309v312l-58 -10l-13 69l113 20h58v-391h-100z" />
    <glyph glyph-name="ordmasculine" unicode="&#xba;" horiz-adv-x="367" 
d="M183 706q56 0 88 -15t47.5 -39.5t19.5 -56t4 -64.5t-4 -64.5t-19.5 -56t-47.5 -39.5t-88 -15t-88 15t-48 39.5t-19.5 56t-3.5 64.5t3.5 64.5t19.5 56t48 39.5t88 15zM183 639q-19 0 -30 -5.5t-16.5 -18.5t-7 -34t-1.5 -51t1.5 -51t7 -33.5t16.5 -18t30 -5.5t30 5.5
t16.5 18t7 33.5t1.5 51t-1.5 51t-7 34t-16.5 18.5t-30 5.5z" />
    <glyph glyph-name="guillemotright" unicode="&#xbb;" horiz-adv-x="629" 
d="M159 35l-122 22l154 214l-153 214l121 22l168 -235zM424 33l-122 22l154 214l-153 214l121 22l168 -235z" />
    <glyph glyph-name="onequarter" unicode="&#xbc;" horiz-adv-x="781" 
d="M62 -17l491 734h124l-491 -734h-124zM116 309v312l-58 -10l-13 69l113 20h58v-391h-100zM746 150v-60h-42v-89h-91v89h-177v59l123 244h145v-243h42zM525 150h88v164h-8z" />
    <glyph glyph-name="onehalf" unicode="&#xbd;" horiz-adv-x="802" 
d="M62 -17l491 734h124l-491 -734h-124zM116 309v312l-58 -10l-13 69l113 20h58v-391h-100zM489 282q0 58 30 87t110 29q39 0 65 -8.5t42 -24t23 -37.5t7 -48q0 -25 -8.5 -43.5t-23 -33t-34.5 -25t-42 -18.5q-35 -12 -56 -24t-21 -40v-26h184v-70h-281v77q0 32 10 55
t26.5 39t37.5 26.5t42 19.5q35 11 53.5 24.5t18.5 38.5q0 24 -10.5 35.5t-35.5 11.5q-26 0 -36 -11t-10 -35z" />
    <glyph glyph-name="threequarters" unicode="&#xbe;" horiz-adv-x="829" 
d="M128 -17l491 734h124l-491 -734h-124zM41 601q0 35 11 56t29.5 32t43.5 14t52 3t52 -3.5t43.5 -14.5t29.5 -32t11 -56q0 -37 -12 -58t-32 -32q24 -10 38.5 -32t14.5 -65q0 -36 -11.5 -58t-31 -33t-46 -14.5t-55.5 -3.5t-55 3.5t-45.5 14.5t-31.5 32t-12 57v24h96v-13
q1 -35 13 -43t36 -8q12 0 21 1.5t15 6.5t9 16t3 29t-3 29t-9 16t-15 6.5t-21 1.5h-39v61h38q11 0 19 1.5t13.5 7t8 16t2.5 27.5q0 35 -10.5 43.5t-33.5 8.5t-34 -8.5t-11 -43.5v-12h-92zM813 150v-60h-42v-89h-91v89h-177v59l123 244h145v-243h42zM592 150h88v164h-8z" />
    <glyph glyph-name="questiondown" unicode="&#xbf;" horiz-adv-x="528" 
d="M234 385v136h140v-136h-140zM370 227q0 -43 -26.5 -61.5t-70.5 -27.5q-31 -6 -50.5 -15t-31 -21.5t-16 -30.5t-4.5 -42q0 -27 4 -48t15 -35.5t30.5 -22t50.5 -7.5t50.5 6.5t30.5 19t15.5 31t4.5 42.5h119q0 -50 -10.5 -88.5t-35 -64t-67 -38.5t-106.5 -13
q-66 -1 -110.5 12.5t-72 40t-39 63.5t-11.5 84q0 39 4.5 69t17.5 52.5t36.5 38t60.5 24.5q22 7 38 12t26 11.5t14.5 16t4.5 24.5v45h128z" />
    <glyph glyph-name="Agrave" unicode="&#xc0;" horiz-adv-x="598" 
d="M298 749l-71 127h101l48 -127h-78zM431 0l-34 160h-197l-34 -160h-145l165 700h227l165 -700h-147zM212 262h170l-74 336h-21z" />
    <glyph glyph-name="Aacute" unicode="&#xc1;" horiz-adv-x="598" 
d="M230 749l48 127h101l-71 -127h-78zM430 0l-34 160h-197l-34 -160h-145l165 700h227l165 -700h-147zM211 262h170l-74 336h-21z" />
    <glyph glyph-name="Acircumflex" unicode="&#xc2;" horiz-adv-x="598" 
d="M357 741l-58 79l-58 -79h-79l77 135h120l77 -135h-79zM430 0l-34 160h-197l-34 -160h-145l165 700h227l165 -700h-147zM211 262h170l-74 336h-21z" />
    <glyph glyph-name="Atilde" unicode="&#xc3;" horiz-adv-x="598" 
d="M465 873q0 -48 -16 -76.5t-42 -38.5q-15 -6 -31 -6q-32 0 -68 18l-40 24q-25 14 -42 14q-8 0 -14 -3q-9 -4 -14.5 -14t-5.5 -31h-59q0 65 23 91.5t61 26.5q31 0 68 -19l40 -23q26 -13 42 -13q8 0 16 3q23 11 23 48zM430 -1l-34 160h-197l-34 -160h-145l165 700h227
l165 -700h-147zM211 261h170l-74 336h-21z" />
    <glyph glyph-name="Adieresis" unicode="&#xc4;" horiz-adv-x="598" 
d="M163 764v81h94v-81h-94zM339 764v81h93v-81h-93zM430 0l-34 160h-197l-34 -160h-145l165 700h227l165 -700h-147zM211 262h170l-74 336h-21z" />
    <glyph glyph-name="Aring" unicode="&#xc5;" horiz-adv-x="598" 
d="M300 913q27 0 48.5 -2.5t36.5 -12t22.5 -30t7.5 -56.5t-7.5 -56.5t-22.5 -30t-36.5 -12t-48.5 -2.5t-48.5 2.5t-36.5 12t-22.5 30t-7.5 56.5t7.5 56.5t22.5 30t36.5 12t48.5 2.5zM302 860q-14 0 -24.5 -1t-17.5 -6t-10 -15t-3 -28t3 -28t10 -15t17.5 -6t24.5 -1
q28 0 41.5 7t13.5 43t-13.5 43t-41.5 7zM431 0l-34 160h-197l-34 -160h-145l165 700h227l165 -700h-147zM212 262h170l-74 336h-21z" />
    <glyph glyph-name="AE" unicode="&#xc6;" horiz-adv-x="741" 
d="M448 597v-192h230v-102h-230v-201h262v-102h-407v160h-104l-34 -160h-145l165 700h526v-102zM213 261h90v336h-16z" />
    <glyph glyph-name="Ccedilla" unicode="&#xc7;" horiz-adv-x="580" 
d="M262 -11q-76 6 -119.5 32t-65 66t-26.5 90t-5 104v66v66q0 58 6 111t32 93.5t77.5 65t143.5 24.5q80 0 127 -20.5t72 -54t32 -78t7 -92.5h-137q0 37 -3.5 64t-14.5 44.5t-31 26t-52 8.5q-41 0 -63.5 -13t-33.5 -39t-13.5 -66t-2.5 -94v-44v-44q0 -54 2.5 -94t13.5 -66
t33.5 -39t63.5 -13q32 0 52 8.5t31 26t14.5 44.5t3.5 64h137q0 -47 -7 -89.5t-29.5 -76t-66 -54.5t-116.5 -24l-14 -1l-8 -26h6q18 0 31.5 -3.5t22.5 -12t14 -23.5t5 -39q0 -29 -6.5 -45t-19 -23.5t-31 -9.5t-41.5 -2h-83v48h59q26 0 36 5t10 31t-10 31.5t-36 5.5h-18z" />
    <glyph glyph-name="Egrave" unicode="&#xc8;" horiz-adv-x="495" 
d="M249 749l-71 127h101l48 -127h-78zM204 597v-192h230v-102h-230v-201h262v-102h-407v700h407v-102z" />
    <glyph glyph-name="Eacute" unicode="&#xc9;" horiz-adv-x="495" 
d="M182 749l48 127h101l-71 -127h-78zM205 597v-192h230v-102h-230v-201h262v-102h-407v700h407v-102z" />
    <glyph glyph-name="Ecircumflex" unicode="&#xca;" horiz-adv-x="495" 
d="M308 741l-58 79l-58 -79h-79l77 135h120l77 -135h-79zM204 597v-192h230v-102h-230v-201h262v-102h-407v700h407v-102z" />
    <glyph glyph-name="Edieresis" unicode="&#xcb;" horiz-adv-x="495" 
d="M114 764v81h94v-81h-94zM290 764v81h93v-81h-93zM204 597v-192h230v-102h-230v-201h262v-102h-407v700h407v-102z" />
    <glyph glyph-name="Igrave" unicode="&#xcc;" horiz-adv-x="263" 
d="M132 749l-71 127h101l48 -127h-78zM60 0v700h145v-700h-145z" />
    <glyph glyph-name="Iacute" unicode="&#xcd;" horiz-adv-x="263" 
d="M64 749l48 127h101l-71 -127h-78zM59 0v700h145v-700h-145z" />
    <glyph glyph-name="Icircumflex" unicode="&#xce;" horiz-adv-x="263" 
d="M190 741l-58 79l-58 -79h-79l77 135h120l77 -135h-79zM58 0v700h145v-700h-145z" />
    <glyph glyph-name="Idieresis" unicode="&#xcf;" horiz-adv-x="263" 
d="M-3 764v81h94v-81h-94zM173 764v81h93v-81h-93zM59 0v700h145v-700h-145z" />
    <glyph glyph-name="Eth" unicode="&#xd0;" horiz-adv-x="626" 
d="M322 699q93 0 145.5 -23t77.5 -63.5t30.5 -96t5.5 -119.5v-48v-48q0 -65 -5.5 -120t-30.5 -95.5t-77.5 -63.5t-145.5 -23h-235v293h-63v115h63v293zM227 406h71v-115h-71v-190h94q43 0 67 11.5t36 36t14.5 62t2.5 90.5v48v48q0 52 -2.5 90t-14 62.5t-35.5 36t-67 11.5
h-94z" />
    <glyph glyph-name="Ntilde" unicode="&#xd1;" horiz-adv-x="619" 
d="M480 873q0 -48 -16 -76.5t-42 -38.5q-15 -6 -31 -6q-32 0 -68 18l-40 24q-25 14 -42 14q-8 0 -14 -3q-9 -4 -14.5 -14t-5.5 -31h-59q0 65 23 91.5t61 26.5q31 0 68 -19l40 -23q26 -13 42 -13q8 0 16 3q23 11 23 48zM413 -1l-220 494h-6v-494h-132v700h161l211 -481h6v481
h132v-700h-152z" />
    <glyph glyph-name="Ograve" unicode="&#xd2;" horiz-adv-x="609" 
d="M304 749l-71 127h101l48 -127h-78zM305 709q93 0 145 -27t77.5 -71t31 -100t5.5 -115v-45v-45q0 -59 -5.5 -115t-31 -100t-77.5 -71t-145 -27t-145 27t-77.5 71t-31 100t-5.5 115v45v45q0 59 5.5 115t31 100t77.5 71t145 27zM305 607q-41 0 -63.5 -13t-33.5 -39
t-13.5 -66t-2.5 -94v-44v-44q0 -54 2.5 -94t13.5 -66t33.5 -39t63.5 -13q40 0 63 13t34 39t13.5 66t2.5 94v44v44q0 54 -2.5 94t-13.5 66t-34 39t-63 13z" />
    <glyph glyph-name="Oacute" unicode="&#xd3;" horiz-adv-x="609" 
d="M236 749l48 127h101l-71 -127h-78zM305 709q93 0 145 -27t77.5 -71t31 -100t5.5 -115v-45v-45q0 -59 -5.5 -115t-31 -100t-77.5 -71t-145 -27t-145 27t-77.5 71t-31 100t-5.5 115v45v45q0 59 5.5 115t31 100t77.5 71t145 27zM305 607q-41 0 -63.5 -13t-33.5 -39
t-13.5 -66t-2.5 -94v-44v-44q0 -54 2.5 -94t13.5 -66t33.5 -39t63.5 -13q40 0 63 13t34 39t13.5 66t2.5 94v44v44q0 54 -2.5 94t-13.5 66t-34 39t-63 13z" />
    <glyph glyph-name="Ocircumflex" unicode="&#xd4;" horiz-adv-x="609" 
d="M362 741l-58 79l-58 -79h-79l77 135h120l77 -135h-79zM304 709q93 0 145 -27t77.5 -71t31 -100t5.5 -115v-45v-45q0 -59 -5.5 -115t-31 -100t-77.5 -71t-145 -27t-145 27t-77.5 71t-31 100t-5.5 115v45v45q0 59 5.5 115t31 100t77.5 71t145 27zM304 607q-41 0 -63.5 -13
t-33.5 -39t-13.5 -66t-2.5 -94v-44v-44q0 -54 2.5 -94t13.5 -66t33.5 -39t63.5 -13q40 0 63 13t34 39t13.5 66t2.5 94v44v44q0 54 -2.5 94t-13.5 66t-34 39t-63 13z" />
    <glyph glyph-name="Otilde" unicode="&#xd5;" horiz-adv-x="609" 
d="M470 873q0 -48 -16 -76.5t-42 -38.5q-15 -6 -31 -6q-32 0 -68 18l-40 24q-25 14 -42 14q-8 0 -14 -3q-9 -4 -14.5 -14t-5.5 -31h-59q0 65 23 91.5t61 26.5q31 0 68 -19l40 -23q26 -13 42 -13q8 0 16 3q23 11 23 48zM304 708q93 0 145 -27t77.5 -71t31 -100t5.5 -115v-45
v-45q0 -59 -5.5 -115t-31 -100t-77.5 -71t-145 -27t-145 27t-77.5 71t-31 100t-5.5 115v45v45q0 59 5.5 115t31 100t77.5 71t145 27zM304 606q-41 0 -63.5 -13t-33.5 -39t-13.5 -66t-2.5 -94v-44v-44q0 -54 2.5 -94t13.5 -66t33.5 -39t63.5 -13q40 0 63 13t34 39t13.5 66
t2.5 94v44v44q0 54 -2.5 94t-13.5 66t-34 39t-63 13z" />
    <glyph glyph-name="Odieresis" unicode="&#xd6;" horiz-adv-x="609" 
d="M169 764v81h94v-81h-94zM345 764v81h93v-81h-93zM305 708q93 0 145 -27t77.5 -71t31 -100t5.5 -115v-45v-45q0 -59 -5.5 -115t-31 -100t-77.5 -71t-145 -27t-145 27t-77.5 71t-31 100t-5.5 115v45v45q0 59 5.5 115t31 100t77.5 71t145 27zM305 606q-41 0 -63.5 -13
t-33.5 -39t-13.5 -66t-2.5 -94v-44v-44q0 -54 2.5 -94t13.5 -66t33.5 -39t63.5 -13q40 0 63 13t34 39t13.5 66t2.5 94v44v44q0 54 -2.5 94t-13.5 66t-34 39t-63 13z" />
    <glyph glyph-name="multiply" unicode="&#xd7;" horiz-adv-x="476" 
d="M372 470l67 -67l-134 -134l134 -134l-67 -67l-134 134l-134 -134l-67 67l134 134l-134 134l67 67l134 -134z" />
    <glyph glyph-name="Oslash" unicode="&#xd8;" horiz-adv-x="609" 
d="M461 676q36 -20 56.5 -50.5t30.5 -67.5t12.5 -78.5t2.5 -83.5v-45v-45q0 -59 -5.5 -115t-31 -100t-77.5 -71t-145 -27q-19 0 -36 1.5t-32 3.5l-15 -46h-98l25 74q-36 20 -56.5 50.5t-30.5 67.5t-12.5 78.5t-2.5 83.5v45v45q0 59 5.5 115t31 100t77.5 71t145 27
q19 0 36 -1.5t32 -3.5l15 46h98zM339 603q-15 3 -35 3q-41 0 -63.5 -13t-33.5 -39t-13.5 -66t-2.5 -94v-44v-44q0 -40 1 -72t6 -57zM269 96q15 -3 35 -3q40 0 63 13t34 39t13.5 66t2.5 94v44v44q0 40 -1 72t-6 57z" />
    <glyph glyph-name="Ugrave" unicode="&#xd9;" horiz-adv-x="611" 
d="M305 749l-71 127h101l48 -127h-78zM552 331q0 -20 0.5 -40t0.5 -40q0 -52 -6.5 -99t-31.5 -82.5t-74.5 -56.5t-135.5 -21t-135.5 21t-74.5 56.5t-31.5 82.5t-6.5 99q0 20 0.5 40t0.5 40v369h145v-369v-85q0 -42 3 -71.5t13.5 -47.5t31 -26.5t56.5 -8.5t56.5 8.5t31 26.5
t13.5 47.5t3 71.5v85v369h145z" />
    <glyph glyph-name="Uacute" unicode="&#xda;" horiz-adv-x="611" 
d="M237 749l48 127h101l-71 -127h-78zM552 331q0 -20 0.5 -40t0.5 -40q0 -52 -6.5 -99t-31.5 -82.5t-74.5 -56.5t-135.5 -21t-135.5 21t-74.5 56.5t-31.5 82.5t-6.5 99q0 20 0.5 40t0.5 40v369h145v-369v-85q0 -42 3 -71.5t13.5 -47.5t31 -26.5t56.5 -8.5t56.5 8.5t31 26.5
t13.5 47.5t3 71.5v85v369h145z" />
    <glyph glyph-name="Ucircumflex" unicode="&#xdb;" horiz-adv-x="611" 
d="M364 741l-58 79l-58 -79h-79l77 135h120l77 -135h-79zM552 330q0 -20 0.5 -40t0.5 -40q0 -52 -6.5 -99t-31.5 -82.5t-74.5 -56.5t-135.5 -21t-135.5 21t-74.5 56.5t-31.5 82.5t-6.5 99q0 20 0.5 40t0.5 40v369h145v-369v-85q0 -42 3 -71.5t13.5 -47.5t31 -26.5t56.5 -8.5
t56.5 8.5t31 26.5t13.5 47.5t3 71.5v85v369h145z" />
    <glyph glyph-name="Udieresis" unicode="&#xdc;" horiz-adv-x="611" 
d="M170 764v81h94v-81h-94zM346 764v81h93v-81h-93zM551 330q0 -20 0.5 -40t0.5 -40q0 -52 -6.5 -99t-31.5 -82.5t-74.5 -56.5t-135.5 -21t-135.5 21t-74.5 56.5t-31.5 82.5t-6.5 99q0 20 0.5 40t0.5 40v369h145v-369v-85q0 -42 3 -71.5t13.5 -47.5t31 -26.5t56.5 -8.5
t56.5 8.5t31 26.5t13.5 47.5t3 71.5v85v369h145z" />
    <glyph glyph-name="Yacute" unicode="&#xdd;" horiz-adv-x="554" 
d="M209 749l48 127h101l-71 -127h-78zM351 0h-145v237l-184 463h149l107 -319l107 319h149l-182 -457z" />
    <glyph glyph-name="Thorn" unicode="&#xde;" horiz-adv-x="583" 
d="M257 582q61 0 113.5 -4t90.5 -25t59.5 -66t21.5 -127t-21.5 -127t-59.5 -66t-90.5 -25t-113.5 -4h-55v-138h-143v700h143v-118h55zM201 223h67q30 0 55.5 2.5t44 14.5t28.5 38.5t10 74.5t-10 74t-28 38.5t-42.5 15t-54.5 2.5h-69z" />
    <glyph glyph-name="germandbls" unicode="&#xdf;" horiz-adv-x="586" 
d="M54 527q0 62 17 98.5t47 55t71 24t89 5.5t88.5 -5.5t70.5 -24t47 -55t17 -97.5q0 -77 -24.5 -115t-65.5 -53q35 -3 61.5 -13.5t44 -31.5t26.5 -54t9 -81q0 -63 -19 -100.5t-53 -57t-79.5 -25.5t-97.5 -6q-25 0 -47 1.5t-39 9.5l19 99q13 -8 30 -9.5t38 -1.5q28 0 48 4.5
t33 16.5t19 33.5t6 56.5t-6 56.5t-19 33.5t-33 16.5t-48 4.5h-39v88h24q46 1 65 23.5t19 84.5q0 33 -5 54t-16.5 33t-29.5 16.5t-43 4.5q-26 0 -43.5 -4.5t-29 -16.5t-16.5 -33.5t-5 -54.5v-505h-130z" />
    <glyph glyph-name="agrave" unicode="&#xe0;" horiz-adv-x="561" 
d="M284 589l-71 127h101l48 -127h-78zM63 360q0 40 9.5 74.5t34 59.5t68 39.5t111.5 14.5q84 0 130 -17t68.5 -49.5t27 -78t4.5 -102.5v-32v-270h-109l-13 43q-35 -25 -76 -38.5t-77 -14.5q-55 -1 -94 3t-63.5 20t-36 46t-11.5 80q0 35 8.5 64.5t29.5 51t57.5 35t93.5 16.5
l153 8q0 41 -2.5 69t-12 45t-28.5 24.5t-52 7.5q-55 0 -74 -23.5t-19 -74.5zM264 241q-55 -3 -73 -24.5t-19 -59.5q0 -27 5 -42.5t16.5 -24t30 -10.5t46.5 -2q29 0 56.5 14t49.5 28v127z" />
    <glyph glyph-name="aacute" unicode="&#xe1;" horiz-adv-x="561" 
d="M216 589l48 127h101l-71 -127h-78zM63 360q0 40 9.5 74.5t34 59.5t68 39.5t111.5 14.5q84 0 130 -17t68.5 -49.5t27 -78t4.5 -102.5v-32v-270h-109l-13 43q-35 -25 -76 -38.5t-77 -14.5q-55 -1 -94 3t-63.5 20t-36 46t-11.5 80q0 35 8.5 64.5t29.5 51t57.5 35t93.5 16.5
l153 8q0 41 -2.5 69t-12 45t-28.5 24.5t-52 7.5q-55 0 -74 -23.5t-19 -74.5zM264 241q-55 -3 -73 -24.5t-19 -59.5q0 -27 5 -42.5t16.5 -24t30 -10.5t46.5 -2q29 0 56.5 14t49.5 28v127z" />
    <glyph glyph-name="acircumflex" unicode="&#xe2;" horiz-adv-x="561" 
d="M342 581l-58 79l-58 -79h-79l77 135h120l77 -135h-79zM61 360q0 40 9.5 74.5t34 59.5t68 39.5t111.5 14.5q84 0 130 -17t68.5 -49.5t27 -78t4.5 -102.5v-32v-270h-109l-13 43q-35 -25 -76 -38.5t-77 -14.5q-55 -1 -94 3t-63.5 20t-36 46t-11.5 80q0 35 8.5 64.5t29.5 51
t57.5 35t93.5 16.5l153 8q0 41 -2.5 69t-12 45t-28.5 24.5t-52 7.5q-55 0 -74 -23.5t-19 -74.5zM262 241q-55 -3 -73 -24.5t-19 -59.5q0 -27 5 -42.5t16.5 -24t30 -10.5t46.5 -2q29 0 56.5 14t49.5 28v127z" />
    <glyph glyph-name="atilde" unicode="&#xe3;" horiz-adv-x="561" 
d="M450 713q0 -48 -16 -76.5t-42 -38.5q-15 -6 -31 -6q-32 0 -68 18l-40 24q-25 14 -42 14q-8 0 -14 -3q-9 -4 -14.5 -14t-5.5 -31h-59q0 65 23 91.5t61 26.5q31 0 68 -19l40 -23q26 -13 42 -13q8 0 16 3q23 11 23 48zM61 359q0 40 9.5 74.5t34 59.5t68 39.5t111.5 14.5
q84 0 130 -17t68.5 -49.5t27 -78t4.5 -102.5v-32v-270h-109l-13 43q-35 -25 -76 -38.5t-77 -14.5q-55 -1 -94 3t-63.5 20t-36 46t-11.5 80q0 35 8.5 64.5t29.5 51t57.5 35t93.5 16.5l153 8q0 41 -2.5 69t-12 45t-28.5 24.5t-52 7.5q-55 0 -74 -23.5t-19 -74.5zM262 240
q-55 -3 -73 -24.5t-19 -59.5q0 -27 5 -42.5t16.5 -24t30 -10.5t46.5 -2q29 0 56.5 14t49.5 28v127z" />
    <glyph glyph-name="adieresis" unicode="&#xe4;" horiz-adv-x="561" 
d="M149 604v81h94v-81h-94zM325 604v81h93v-81h-93zM62 359q0 40 9.5 74.5t34 59.5t68 39.5t111.5 14.5q84 0 130 -17t68.5 -49.5t27 -78t4.5 -102.5v-32v-270h-109l-13 43q-35 -25 -76 -38.5t-77 -14.5q-55 -1 -94 3t-63.5 20t-36 46t-11.5 80q0 35 8.5 64.5t29.5 51
t57.5 35t93.5 16.5l153 8q0 41 -2.5 69t-12 45t-28.5 24.5t-52 7.5q-55 0 -74 -23.5t-19 -74.5zM263 240q-55 -3 -73 -24.5t-19 -59.5q0 -27 5 -42.5t16.5 -24t30 -10.5t46.5 -2q29 0 56.5 14t49.5 28v127z" />
    <glyph glyph-name="aring" unicode="&#xe5;" horiz-adv-x="561" 
d="M285 753q27 0 48.5 -2.5t36.5 -12t22.5 -30t7.5 -56.5t-7.5 -56.5t-22.5 -30t-36.5 -12t-48.5 -2.5t-48.5 2.5t-36.5 12t-22.5 30t-7.5 56.5t7.5 56.5t22.5 30t36.5 12t48.5 2.5zM287 700q-14 0 -24.5 -1t-17.5 -6t-10 -15t-3 -28t3 -28t10 -15t17.5 -6t24.5 -1
q28 0 41.5 7t13.5 43t-13.5 43t-41.5 7zM62 360q0 40 9.5 74.5t34 59.5t68 39.5t111.5 14.5q84 0 130 -17t68.5 -49.5t27 -78t4.5 -102.5v-32v-270h-109l-13 43q-35 -25 -76 -38.5t-77 -14.5q-55 -1 -94 3t-63.5 20t-36 46t-11.5 80q0 35 8.5 64.5t29.5 51t57.5 35
t93.5 16.5l153 8q0 41 -2.5 69t-12 45t-28.5 24.5t-52 7.5q-55 0 -74 -23.5t-19 -74.5zM263 241q-55 -3 -73 -24.5t-19 -59.5q0 -27 5 -42.5t16.5 -24t30 -10.5t46.5 -2q29 0 56.5 14t49.5 28v127z" />
    <glyph glyph-name="ae" unicode="&#xe6;" horiz-adv-x="957" 
d="M64 358q0 40 9.5 74.5t34 59.5t68 39.5t111.5 14.5q45 0 78.5 -6t57 -17t39 -27t25.5 -37q23 40 69.5 63.5t130.5 23.5q88 0 136.5 -23t70.5 -62t26 -89.5t4 -104.5v-41h-345q0 -35 3.5 -60t15 -42t32.5 -25t57 -8q24 0 53.5 0.5t59 1.5t55 2.5l42.5 2.5l13 -86
q-54 -7 -107.5 -14t-119.5 -9q-63 0 -103 15.5t-65 46.5v-52h-109l-13 43q-35 -25 -76 -38.5t-77 -14.5q-55 -1 -94 3t-63.5 20t-36 46t-11.5 80q0 35 8.5 64.5t29.5 51t57.5 35t93.5 16.5l153 8q0 41 -2.5 69t-12 45t-28.5 24.5t-52 7.5q-55 0 -74 -23.5t-19 -75.5z
M787 302q0 40 -2.5 69.5t-12.5 48.5t-30 28t-55 9q-37 0 -58 -9t-32 -28t-14.5 -47.5t-3.5 -68.5v-9h209zM264 239q-55 -3 -73 -24.5t-19 -59.5q0 -27 5 -42.5t16.5 -24t30 -10.5t46.5 -2q29 0 56.5 14t49.5 28v127z" />
    <glyph glyph-name="ccedilla" unicode="&#xe7;" horiz-adv-x="538" 
d="M242 -6q-72 5 -113.5 30t-61.5 62.5t-25 85.5t-5 99q0 54 5.5 104.5t29.5 89t72 61.5t134 23q71 0 115 -16.5t68.5 -44t33 -64.5t8.5 -78h-130q0 30 -4.5 51.5t-15.5 35t-29 20t-46 6.5q-36 0 -57 -10.5t-31 -33.5t-12.5 -59t-2.5 -86t2.5 -86t12.5 -59t31 -33.5
t57 -10.5q28 0 46 6.5t29 20t15.5 35t4.5 51.5h130q0 -39 -7.5 -74.5t-29.5 -62.5t-60.5 -44t-100.5 -20l-15 -1l-8 -27h6q18 0 31.5 -3.5t22.5 -12t14 -23.5t5 -39q0 -28 -6.5 -44t-19 -24t-31 -10t-41.5 -2h-83v48h59q26 0 36 5t10 32q0 26 -10 31t-36 5h-18z" />
    <glyph glyph-name="egrave" unicode="&#xe8;" horiz-adv-x="555" 
d="M273 589l-71 127h101l48 -127h-78zM507 15q-54 -8 -108.5 -15t-120.5 -7q-64 0 -109.5 14.5t-74.5 47t-42.5 85.5t-13.5 131q0 54 5.5 104.5t30 89t74 61.5t136.5 23q88 0 136.5 -23t70.5 -62t26 -89.5t4 -104.5v-42h-345q0 -35 3.5 -60t15 -42t32.5 -25t57 -8
q24 0 52 0.5t56.5 1.5t54.5 2.5t47 2.5zM383 313q0 38 -3 66t-12.5 46t-29.5 27t-55 9q-37 0 -58 -9t-32 -27.5t-14.5 -46.5t-3.5 -66v-13h209z" />
    <glyph glyph-name="eacute" unicode="&#xe9;" horiz-adv-x="555" 
d="M205 589l48 127h101l-71 -127h-78zM507 15q-54 -8 -108.5 -15t-120.5 -7q-64 0 -109.5 14.5t-74.5 47t-42.5 85.5t-13.5 131q0 54 5.5 104.5t30 89t74 61.5t136.5 23q88 0 136.5 -23t70.5 -62t26 -89.5t4 -104.5v-42h-345q0 -35 3.5 -60t15 -42t32.5 -25t57 -8
q24 0 52 0.5t56.5 1.5t54.5 2.5t47 2.5zM383 313q0 38 -3 66t-12.5 46t-29.5 27t-55 9q-37 0 -58 -9t-32 -27.5t-14.5 -46.5t-3.5 -66v-13h209z" />
    <glyph glyph-name="ecircumflex" unicode="&#xea;" horiz-adv-x="555" 
d="M332 581l-58 79l-58 -79h-79l77 135h120l77 -135h-79zM507 15q-54 -8 -108.5 -15t-120.5 -7q-64 0 -109.5 14.5t-74.5 47t-42.5 85.5t-13.5 131q0 54 5.5 104.5t30 89t74 61.5t136.5 23q88 0 136.5 -23t70.5 -62t26 -89.5t4 -104.5v-42h-345q0 -35 3.5 -60t15 -42
t32.5 -25t57 -8q24 0 52 0.5t56.5 1.5t54.5 2.5t47 2.5zM383 313q0 38 -3 66t-12.5 46t-29.5 27t-55 9q-37 0 -58 -9t-32 -27.5t-14.5 -46.5t-3.5 -66v-13h209z" />
    <glyph glyph-name="edieresis" unicode="&#xeb;" horiz-adv-x="555" 
d="M138 604v81h94v-81h-94zM314 604v81h93v-81h-93zM507 15q-54 -8 -108.5 -15t-120.5 -7q-64 0 -109.5 14.5t-74.5 47t-42.5 85.5t-13.5 131q0 54 5.5 104.5t30 89t74 61.5t136.5 23q88 0 136.5 -23t70.5 -62t26 -89.5t4 -104.5v-42h-345q0 -35 3.5 -60t15 -42t32.5 -25
t57 -8q24 0 52 0.5t56.5 1.5t54.5 2.5t47 2.5zM383 313q0 38 -3 66t-12.5 46t-29.5 27t-55 9q-37 0 -58 -9t-32 -27.5t-14.5 -46.5t-3.5 -66v-13h209z" />
    <glyph glyph-name="igrave" unicode="&#xec;" horiz-adv-x="244" 
d="M124 589l-71 127h101l48 -127h-78zM56 0v540h139v-540h-139z" />
    <glyph glyph-name="iacute" unicode="&#xed;" horiz-adv-x="244" 
d="M56 589l48 127h101l-71 -127h-78zM56 0v540h139v-540h-139z" />
    <glyph glyph-name="icircumflex" unicode="&#xee;" horiz-adv-x="244" 
d="M182 581l-58 79l-58 -79h-78l77 135h120l77 -135h-80zM55 0v540h139v-540h-139z" />
    <glyph glyph-name="idieresis" unicode="&#xef;" horiz-adv-x="244" 
d="M-10 604v81h93v-81h-93zM166 604v81h93v-81h-93zM57 0v540h139v-540h-139z" />
    <glyph glyph-name="eth" unicode="&#xf0;" horiz-adv-x="608" 
d="M502 628q19 -42 23 -94.5t4 -113.5v-58v-58q0 -67 -5.5 -124.5t-29.5 -99.5t-73 -66t-136 -24q-76 0 -123 18t-73.5 50.5t-36 77.5t-10.5 99q0 68 17.5 108.5t45.5 61.5t64 27t72 6q37 0 73 -12t73 -29v58q0 24 -0.5 45t-2.5 39l-69 -51l-41 57l81 60q-23 20 -69 20
q-25 0 -55.5 -3t-62.5 -9l-27 90q25 15 60.5 23t85.5 8q64 0 106.5 -13t69.5 -36l60 44l41 -57zM388 318q-26 17 -50.5 29t-53.5 12q-27 0 -47 -4.5t-32.5 -17t-18.5 -35t-6 -58.5q1 -33 4.5 -61t14 -48t30.5 -31t55 -11q36 0 56.5 10.5t31 30.5t13.5 48.5t3 63.5v72z" />
    <glyph glyph-name="ntilde" unicode="&#xf1;" horiz-adv-x="571" 
d="M462 716q0 -48 -16 -76.5t-42 -38.5q-15 -6 -31 -6q-32 0 -68 18l-40 24q-25 14 -42 14q-8 0 -14 -3q-9 -4 -14.5 -14t-5.5 -31h-59q0 65 23 91.5t61 26.5q31 0 68 -19l40 -23q26 -13 42 -13q8 0 16 3q23 11 23 48zM172 500q29 17 64.5 32.5t78.5 17.5h27q64 0 100.5 -17
t54.5 -48t22.5 -75t4.5 -98v-313h-139v304q0 45 -2.5 74.5t-13 47.5t-30.5 25.5t-56 7.5q-23 0 -47.5 -10.5t-45.5 -21.5v-427h-139v540h109z" />
    <glyph glyph-name="ograve" unicode="&#xf2;" horiz-adv-x="567" 
d="M283 589l-71 127h101l48 -127h-78zM285 549q87 0 136.5 -23t74 -61.5t30 -89t5.5 -104.5t-5.5 -104.5t-30 -89t-74 -61.5t-136.5 -23t-136.5 23t-74 61.5t-30 89t-5.5 104.5t5.5 104.5t30 89t74 61.5t136.5 23zM284 460q-38 0 -59.5 -10.5t-32 -33.5t-13 -59t-2.5 -87
t2.5 -87t13 -58.5t32 -33t59.5 -10.5t60 10.5t32.5 33t13 58.5t2.5 87t-2.5 87t-13 59t-32 33.5t-59.5 10.5h-1z" />
    <glyph glyph-name="oacute" unicode="&#xf3;" horiz-adv-x="567" 
d="M215 589l48 127h101l-71 -127h-78zM284 549q87 0 136.5 -23t74 -61.5t30 -89t5.5 -104.5t-5.5 -104.5t-30 -89t-74 -61.5t-136.5 -23t-136.5 23t-74 61.5t-30 89t-5.5 104.5t5.5 104.5t30 89t74 61.5t136.5 23zM283 460q-38 0 -59.5 -10.5t-32 -33.5t-13 -59t-2.5 -87
t2.5 -87t13 -58.5t32 -33t59.5 -10.5t60 10.5t32.5 33t13 58.5t2.5 87t-2.5 87t-13 59t-32 33.5t-59.5 10.5h-1z" />
    <glyph glyph-name="ocircumflex" unicode="&#xf4;" horiz-adv-x="567" 
d="M341 581l-58 79l-58 -79h-79l77 135h120l77 -135h-79zM283 548q87 0 136.5 -23t74 -61.5t30 -89t5.5 -104.5t-5.5 -104.5t-30 -89t-74 -61.5t-136.5 -23t-136.5 23t-74 61.5t-30 89t-5.5 104.5t5.5 104.5t30 89t74 61.5t136.5 23zM282 459q-38 0 -59.5 -10.5t-32 -33.5
t-13 -59t-2.5 -87t2.5 -87t13 -58.5t32 -33t59.5 -10.5t60 10.5t32.5 33t13 58.5t2.5 87t-2.5 87t-13 59t-32 33.5t-59.5 10.5h-1z" />
    <glyph glyph-name="otilde" unicode="&#xf5;" horiz-adv-x="567" 
d="M449 713q0 -48 -16 -76.5t-42 -38.5q-15 -6 -31 -6q-32 0 -68 18l-40 24q-25 14 -42 14q-8 0 -14 -3q-9 -4 -14.5 -14t-5.5 -31h-59q0 65 23 91.5t61 26.5q31 0 68 -19l40 -23q26 -13 42 -13q8 0 16 3q23 11 23 48zM283 548q87 0 136.5 -23t74 -61.5t30 -89t5.5 -104.5
t-5.5 -104.5t-30 -89t-74 -61.5t-136.5 -23t-136.5 23t-74 61.5t-30 89t-5.5 104.5t5.5 104.5t30 89t74 61.5t136.5 23zM282 459q-38 0 -59.5 -10.5t-32 -33.5t-13 -59t-2.5 -87t2.5 -87t13 -58.5t32 -33t59.5 -10.5t60 10.5t32.5 33t13 58.5t2.5 87t-2.5 87t-13 59
t-32 33.5t-59.5 10.5h-1z" />
    <glyph glyph-name="odieresis" unicode="&#xf6;" horiz-adv-x="567" 
d="M148 604v81h94v-81h-94zM324 604v81h93v-81h-93zM284 548q87 0 136.5 -23t74 -61.5t30 -89t5.5 -104.5t-5.5 -104.5t-30 -89t-74 -61.5t-136.5 -23t-136.5 23t-74 61.5t-30 89t-5.5 104.5t5.5 104.5t30 89t74 61.5t136.5 23zM283 459q-38 0 -59.5 -10.5t-32 -33.5
t-13 -59t-2.5 -87t2.5 -87t13 -58.5t32 -33t59.5 -10.5t60 10.5t32.5 33t13 58.5t2.5 87t-2.5 87t-13 59t-32 33.5t-59.5 10.5h-1z" />
    <glyph glyph-name="divide" unicode="&#xf7;" horiz-adv-x="547" 
d="M216 383v119h115v-119h-115zM37 222v94h473v-94h-473zM216 36v119h115v-119h-115z" />
    <glyph glyph-name="oslash" unicode="&#xf8;" horiz-adv-x="567" 
d="M408 529q42 -16 66 -42.5t36 -60.5t15 -74t3 -82q0 -54 -5.5 -104.5t-30 -89t-74 -61.5t-136.5 -23q-27 0 -51 3l-14 -43h-82l20 60q-42 16 -65.5 42.5t-35.5 60.5t-15 74t-3 82q0 54 5.5 104.5t30 89t74 61.5t136.5 23q27 0 51 -3l15 44h82zM302 458q-5 1 -10.5 1h-11.5
q-38 0 -59.5 -10.5t-32 -33.5t-13 -59t-2.5 -87q0 -53 3 -89t15 -59zM259 82q5 -1 10.5 -1h11.5q38 0 60 10.5t32.5 33t13 58.5t2.5 87q0 53 -3 89t-15 59z" />
    <glyph glyph-name="ugrave" unicode="&#xf9;" 
d="M282 589l-71 127h101l48 -127h-78zM411 0l-13 41q-29 -17 -64.5 -33t-78.5 -18q-74 -3 -115.5 12t-62 46.5t-25.5 76.5t-5 102v313h139v-313q0 -41 2.5 -69t13 -45t30.5 -24.5t56 -7.5q23 0 47.5 10.5t45.5 21.5v427h139v-540h-109z" />
    <glyph glyph-name="uacute" unicode="&#xfa;" 
d="M214 589l48 127h101l-71 -127h-78zM411 0l-13 41q-29 -17 -64.5 -33t-78.5 -18q-74 -3 -115.5 12t-62 46.5t-25.5 76.5t-5 102v313h139v-313q0 -41 2.5 -69t13 -45t30.5 -24.5t56 -7.5q23 0 47.5 10.5t45.5 21.5v427h139v-540h-109z" />
    <glyph glyph-name="ucircumflex" unicode="&#xfb;" 
d="M340 581l-58 79l-58 -79h-79l77 135h120l77 -135h-79zM410 0l-13 41q-29 -17 -64.5 -33t-78.5 -18q-74 -3 -115.5 12t-62 46.5t-25.5 76.5t-5 102v313h139v-313q0 -41 2.5 -69t13 -45t30.5 -24.5t56 -7.5q23 0 47.5 10.5t45.5 21.5v427h139v-540h-109z" />
    <glyph glyph-name="udieresis" unicode="&#xfc;" 
d="M147 604v81h94v-81h-94zM323 604v81h93v-81h-93zM411 0l-13 41q-29 -17 -64.5 -33t-78.5 -18q-74 -3 -115.5 12t-62 46.5t-25.5 76.5t-5 102v313h139v-313q0 -41 2.5 -69t13 -45t30.5 -24.5t56 -7.5q23 0 47.5 10.5t45.5 21.5v427h139v-540h-109z" />
    <glyph glyph-name="yacute" unicode="&#xfd;" horiz-adv-x="547" 
d="M201 601l48 127h101l-71 -127h-78zM370 22q-25 -78 -55 -122t-74 -65q-29 -15 -65.5 -20.5t-83.5 -5.5h-22t-22 1l8 91q11 -1 21.5 -1.5t20.5 -0.5q23 0 41.5 2.5t34.5 9.5q23 10 41 30.5t37 58.5h-65l-174 540h149l104 -446h16l106 446h147z" />
    <glyph glyph-name="thorn" unicode="&#xfe;" horiz-adv-x="567" 
d="M194 508q26 16 57.5 28.5t68.5 13.5q74 1 116 -18t62.5 -55.5t25.5 -89t5 -117.5t-5 -118t-25.5 -89.5t-62.5 -55.5t-116 -17q-36 1 -68 13.5t-57 26.5v-213h-139v933h139zM195 113q21 -11 45.5 -21.5t47.5 -10.5q36 0 56 10.5t30.5 33.5t13 58.5t2.5 86.5t-2.5 86.5
t-13 58.5t-30.5 33.5t-56 10.5q-24 0 -48 -10.5t-46 -23.5z" />
    <glyph glyph-name="ydieresis" unicode="&#xff;" horiz-adv-x="547" 
d="M134 617v81h94v-81h-94zM310 617v81h93v-81h-93zM369 22q-25 -78 -55 -122t-74 -65q-29 -15 -65.5 -20.5t-83.5 -5.5h-22t-22 1l8 91q11 -1 21.5 -1.5t20.5 -0.5q23 0 41.5 2.5t34.5 9.5q23 10 41 30.5t37 58.5h-65l-174 540h149l104 -446h16l106 446h147z" />
    <glyph glyph-name="Amacron" unicode="&#x100;" horiz-adv-x="598" 
d="M147 771v73h301v-73h-301zM430 0l-34 160h-197l-34 -160h-145l165 700h227l165 -700h-147zM211 262h170l-74 336h-21z" />
    <glyph glyph-name="amacron" unicode="&#x101;" horiz-adv-x="561" 
d="M134 616v73h301v-73h-301zM62 359q0 40 9.5 74.5t34 59.5t68 39.5t111.5 14.5q84 0 130 -17t68.5 -49.5t27 -78t4.5 -102.5v-32v-270h-109l-13 43q-35 -25 -76 -38.5t-77 -14.5q-55 -1 -94 3t-63.5 20t-36 46t-11.5 80q0 35 8.5 64.5t29.5 51t57.5 35t93.5 16.5l153 8
q0 41 -2.5 69t-12 45t-28.5 24.5t-52 7.5q-55 0 -74 -23.5t-19 -74.5zM263 240q-55 -3 -73 -24.5t-19 -59.5q0 -27 5 -42.5t16.5 -24t30 -10.5t46.5 -2q29 0 56.5 14t49.5 28v127z" />
    <glyph glyph-name="Abreve" unicode="&#x102;" horiz-adv-x="598" 
d="M431 869q0 -63 -29 -96t-103 -33t-103 33t-29 96h68q0 -29 13.5 -44t49.5 -15t49.5 15t13.5 45zM431 -1l-34 160h-197l-34 -160h-145l165 700h227l165 -700h-147zM212 261h170l-74 336h-21z" />
    <glyph glyph-name="abreve" unicode="&#x103;" horiz-adv-x="561" 
d="M418 715q0 -63 -29 -96t-103 -33t-103 33t-29 96h68q0 -29 13.5 -44t49.5 -15t49.5 15t13.5 45zM63 359q0 40 9.5 74.5t34 59.5t68 39.5t111.5 14.5q84 0 130 -17t68.5 -49.5t27 -78t4.5 -102.5v-32v-270h-109l-13 43q-35 -25 -76 -38.5t-77 -14.5q-55 -1 -94 3t-63.5 20
t-36 46t-11.5 80q0 35 8.5 64.5t29.5 51t57.5 35t93.5 16.5l153 8q0 41 -2.5 69t-12 45t-28.5 24.5t-52 7.5q-55 0 -74 -23.5t-19 -74.5zM264 240q-55 -3 -73 -24.5t-19 -59.5q0 -27 5 -42.5t16.5 -24t30 -10.5t46.5 -2q29 0 56.5 14t49.5 28v127z" />
    <glyph glyph-name="Aogonek" unicode="&#x104;" horiz-adv-x="598" 
d="M500 0q-27 -22 -38 -41t-11 -35q0 -39 45 -39h24v-59h-70q-31 0 -51.5 10.5t-28.5 34.5q-5 15 -5 27q0 24 15.5 49t49.5 54l-34 159h-197l-34 -160h-145l165 700h227l165 -700h-77zM211 264h170l-74 336h-21z" />
    <glyph glyph-name="aogonek" unicode="&#x105;" horiz-adv-x="561" 
d="M63 361q0 40 9.5 74.5t34 59.5t68 39.5t111.5 14.5q84 0 130 -17t68.5 -49.5t27 -78t4.5 -102.5v-32v-272l-44 -4q-26 -21 -36.5 -39.5t-10.5 -34.5q0 -23 11.5 -31.5t33.5 -8.5h24v-59h-70q-31 0 -51.5 10.5t-28.5 34.5q-5 17 -5 28q0 25 16 50t51 55l-13 43
q-35 -25 -76 -38.5t-77 -14.5q-55 -1 -94 3t-63.5 20t-36 46t-11.5 80q0 35 8.5 64.5t29.5 51t57.5 35t93.5 16.5l153 8q0 41 -2.5 69t-12 45t-28.5 24.5t-52 7.5q-55 0 -74 -23.5t-19 -74.5h-126zM264 242q-55 -3 -73 -24.5t-19 -59.5q0 -27 5 -42.5t16.5 -24t30 -10.5
t46.5 -2q29 0 56.5 14t49.5 28v127z" />
    <glyph glyph-name="Cacute" unicode="&#x106;" horiz-adv-x="580" 
d="M216 749l48 127h101l-71 -127h-78zM543 233q0 -48 -7 -92.5t-32 -78t-72 -54t-127 -20.5q-92 0 -143.5 24.5t-77.5 65t-32 93.5t-6 111v66v66q0 58 6 111t32 93.5t77.5 65t143.5 24.5q80 0 127 -20.5t72 -54t32 -78t7 -92.5h-137q0 37 -3.5 64t-14.5 44.5t-31 26t-52 8.5
q-41 0 -63.5 -13t-33.5 -39t-13.5 -66t-2.5 -94v-44v-44q0 -54 2.5 -94t13.5 -66t33.5 -39t63.5 -13q32 0 52 8.5t31 26t14.5 44.5t3.5 64z" />
    <glyph glyph-name="cacute" unicode="&#x107;" horiz-adv-x="538" 
d="M197 589l48 127h101l-71 -127h-78zM505 196q0 -41 -8.5 -78t-33 -65t-68.5 -44t-115 -16q-86 0 -134 23t-72 61.5t-29.5 89t-5.5 104.5t5.5 104.5t29.5 89t72 61.5t134 23q71 0 115 -16.5t68.5 -44t33 -64.5t8.5 -78h-130q0 30 -4.5 51.5t-15.5 35t-29 20t-46 6.5
q-36 0 -57 -10.5t-31 -33.5t-12.5 -59t-2.5 -86t2.5 -86t12.5 -59t31 -33.5t57 -10.5q28 0 46 6.5t29 20t15.5 35t4.5 51.5z" />
    <glyph glyph-name="Cdotaccent" unicode="&#x10a;" horiz-adv-x="580" 
d="M239 764v81h93v-81h-93zM543 233q0 -48 -7 -92.5t-32 -78t-72 -54t-127 -20.5q-92 0 -143.5 24.5t-77.5 65t-32 93.5t-6 111v66v66q0 58 6 111t32 93.5t77.5 65t143.5 24.5q80 0 127 -20.5t72 -54t32 -78t7 -92.5h-137q0 37 -3.5 64t-14.5 44.5t-31 26t-52 8.5
q-41 0 -63.5 -13t-33.5 -39t-13.5 -66t-2.5 -94v-44v-44q0 -54 2.5 -94t13.5 -66t33.5 -39t63.5 -13q32 0 52 8.5t31 26t14.5 44.5t3.5 64z" />
    <glyph glyph-name="cdotaccent" unicode="&#x10b;" horiz-adv-x="538" 
d="M219 604v81h93v-81h-93zM504 196q0 -41 -8.5 -78t-33 -65t-68.5 -44t-115 -16q-86 0 -134 23t-72 61.5t-29.5 89t-5.5 104.5t5.5 104.5t29.5 89t72 61.5t134 23q71 0 115 -16.5t68.5 -44t33 -64.5t8.5 -78h-130q0 30 -4.5 51.5t-15.5 35t-29 20t-46 6.5q-36 0 -57 -10.5
t-31 -33.5t-12.5 -59t-2.5 -86t2.5 -86t12.5 -59t31 -33.5t57 -10.5q28 0 46 6.5t29 20t15.5 35t4.5 51.5z" />
    <glyph glyph-name="Ccaron" unicode="&#x10c;" horiz-adv-x="580" 
d="M226 741l-77 135h78l59 -79l58 79h78l-77 -135h-119zM544 233q0 -48 -7 -92.5t-32 -78t-72 -54t-127 -20.5q-92 0 -143.5 24.5t-77.5 65t-32 93.5t-6 111v66v66q0 58 6 111t32 93.5t77.5 65t143.5 24.5q80 0 127 -20.5t72 -54t32 -78t7 -92.5h-137q0 37 -3.5 64
t-14.5 44.5t-31 26t-52 8.5q-41 0 -63.5 -13t-33.5 -39t-13.5 -66t-2.5 -94v-44v-44q0 -54 2.5 -94t13.5 -66t33.5 -39t63.5 -13q32 0 52 8.5t31 26t14.5 44.5t3.5 64z" />
    <glyph glyph-name="ccaron" unicode="&#x10d;" horiz-adv-x="538" 
d="M207 581l-77 135h78l58 -79l58 79h78l-77 -135h-118zM506 196q0 -41 -8.5 -78t-33 -65t-68.5 -44t-115 -16q-86 0 -134 23t-72 61.5t-29.5 89t-5.5 104.5t5.5 104.5t29.5 89t72 61.5t134 23q71 0 115 -16.5t68.5 -44t33 -64.5t8.5 -78h-130q0 30 -4.5 51.5t-15.5 35
t-29 20t-46 6.5q-36 0 -57 -10.5t-31 -33.5t-12.5 -59t-2.5 -86t2.5 -86t12.5 -59t31 -33.5t57 -10.5q28 0 46 6.5t29 20t15.5 35t4.5 51.5z" />
    <glyph glyph-name="Dcaron" unicode="&#x10e;" horiz-adv-x="598" 
d="M221 741l-77 135h78l58 -79l58 79h78l-77 -135h-118zM296 700q93 0 145.5 -23t77.5 -63.5t30.5 -96t5.5 -119.5v-48v-48q0 -65 -5.5 -120t-30.5 -95.5t-77.5 -63.5t-145.5 -23h-235v700h235zM201 102h94q43 0 67 11.5t36 36t14.5 62t2.5 90.5v48v48q0 52 -2.5 90
t-14 62.5t-35.5 36t-67 11.5h-94z" />
    <glyph glyph-name="dcaron" unicode="&#x10f;" horiz-adv-x="696" 
d="M409 -1l-13 42q-29 -20 -64 -35.5t-79 -16.5q-74 -2 -116 17.5t-62.5 56t-25.5 89t-5 117.5t5 118t25.5 89.5t62.5 55.5t116 17q36 -1 68 -13t57 -26v240h139v-750zM586 611l-4 138h96l-30 -138h-62zM378 426q-21 11 -45.5 21.5t-47.5 10.5q-36 0 -56 -10.5t-30.5 -33.5
t-13 -58.5t-2.5 -86.5t2.5 -86.5t13 -58.5t30.5 -33.5t56 -10.5q24 0 48 10.5t46 23.5z" />
    <glyph glyph-name="Dcroat" unicode="&#x110;" horiz-adv-x="598" 
d="M128 771v73h301v-73h-301zM294 700q93 0 145.5 -23t77.5 -63.5t30.5 -96t5.5 -119.5v-48v-48q0 -65 -5.5 -120t-30.5 -95.5t-77.5 -63.5t-145.5 -23h-235v700h235zM199 102h94q43 0 67 11.5t36 36t14.5 62t2.5 90.5v48v48q0 52 -2.5 90t-14 62.5t-35.5 36t-67 11.5h-94z
" />
    <glyph glyph-name="dcroat" unicode="&#x111;" horiz-adv-x="568" 
d="M578 684v-73h-60v-611h-109l-13 42q-29 -20 -64 -35.5t-79 -16.5q-74 -2 -116 17.5t-62.5 56t-25.5 89t-5 117.5t5 118t25.5 89.5t62.5 55.5t116 17q36 -1 68 -13t57 -26v101h-101v73h101v65h139v-65zM378 426q-21 11 -45.5 21.5t-47.5 10.5q-36 0 -56 -10.5t-30.5 -33.5
t-13 -58.5t-2.5 -86.5t2.5 -86.5t13 -58.5t30.5 -33.5t56 -10.5q24 0 48 10.5t46 23.5z" />
    <glyph glyph-name="Emacron" unicode="&#x112;" horiz-adv-x="495" 
d="M99 771v73h301v-73h-301zM204 597v-192h230v-102h-230v-201h262v-102h-407v700h407v-102z" />
    <glyph glyph-name="emacron" unicode="&#x113;" horiz-adv-x="555" 
d="M123 611v73h301v-73h-301zM507 15q-54 -8 -108.5 -15t-120.5 -7q-64 0 -109.5 14.5t-74.5 47t-42.5 85.5t-13.5 131q0 54 5.5 104.5t30 89t74 61.5t136.5 23q88 0 136.5 -23t70.5 -62t26 -89.5t4 -104.5v-42h-345q0 -35 3.5 -60t15 -42t32.5 -25t57 -8q24 0 52 0.5
t56.5 1.5t54.5 2.5t47 2.5zM383 313q0 38 -3 66t-12.5 46t-29.5 27t-55 9q-37 0 -58 -9t-32 -27.5t-14.5 -46.5t-3.5 -66v-13h209z" />
    <glyph glyph-name="Edotaccent" unicode="&#x116;" horiz-adv-x="495" 
d="M204 764v81h93v-81h-93zM205 597v-192h230v-102h-230v-201h262v-102h-407v700h407v-102z" />
    <glyph glyph-name="edotaccent" unicode="&#x117;" horiz-adv-x="555" 
d="M228 604v81h93v-81h-93zM507 15q-54 -8 -108.5 -15t-120.5 -7q-64 0 -109.5 14.5t-74.5 47t-42.5 85.5t-13.5 131q0 54 5.5 104.5t30 89t74 61.5t136.5 23q88 0 136.5 -23t70.5 -62t26 -89.5t4 -104.5v-42h-345q0 -35 3.5 -60t15 -42t32.5 -25t57 -8q24 0 52 0.5
t56.5 1.5t54.5 2.5t47 2.5zM383 313q0 38 -3 66t-12.5 46t-29.5 27t-55 9q-37 0 -58 -9t-32 -27.5t-14.5 -46.5t-3.5 -66v-13h209z" />
    <glyph glyph-name="Eogonek" unicode="&#x118;" horiz-adv-x="495" 
d="M205 598v-192h230v-102h-230v-201h262v-102h-51q-23 -20 -33 -38t-10 -33q0 -21 11.5 -29.5t33.5 -8.5h24v-59h-70q-31 0 -51.5 10.5t-28.5 34.5q-5 15 -5 27q0 23 13.5 45.5t42.5 49.5h-284v700h407v-102h-261z" />
    <glyph glyph-name="eogonek" unicode="&#x119;" horiz-adv-x="555" 
d="M379 -173q-31 0 -51.5 10.5t-28.5 34.5q-5 15 -5 27q0 23 13.5 46.5t42.5 50.5q-16 -2 -33 -3t-37 -1q-64 0 -109.5 14.5t-74.5 47t-42.5 85.5t-13.5 131q0 54 5.5 104.5t30 89t74 61.5t136.5 23q88 0 136.5 -23t70.5 -62t26 -89.5t4 -104.5v-42h-345q0 -35 3.5 -60
t15 -42t32.5 -25t57 -8q24 0 53 0.5t57.5 1.5t54.5 2.5t44 2.5l13 -86q-17 -2 -34 -4.5t-44 -6.5q-29 -23 -41 -42t-12 -36q0 -22 11.5 -30.5t33.5 -8.5h24v-59zM386 312q0 38 -3 66t-12.5 46t-29.5 27t-55 9q-37 0 -58 -9t-32 -27.5t-14.5 -46.5t-3.5 -66v-13h209z" />
    <glyph glyph-name="Ecaron" unicode="&#x11a;" horiz-adv-x="495" 
d="M191 741l-77 135h78l58 -79l59 79h78l-77 -135h-119zM205 597v-192h230v-102h-230v-201h262v-102h-407v700h407v-102z" />
    <glyph glyph-name="ecaron" unicode="&#x11b;" horiz-adv-x="555" 
d="M215 581l-77 135h78l59 -79l58 79h78l-77 -135h-119zM508 15q-54 -8 -108.5 -15t-120.5 -7q-64 0 -109.5 14.5t-74.5 47t-42.5 85.5t-13.5 131q0 54 5.5 104.5t30 89t74 61.5t136.5 23q88 0 136.5 -23t70.5 -62t26 -89.5t4 -104.5v-42h-345q0 -35 3.5 -60t15 -42
t32.5 -25t57 -8q24 0 52 0.5t56.5 1.5t54.5 2.5t47 2.5zM384 313q0 38 -3 66t-12.5 46t-29.5 27t-55 9q-37 0 -58 -9t-32 -27.5t-14.5 -46.5t-3.5 -66v-13h209z" />
    <glyph glyph-name="Gbreve" unicode="&#x11e;" horiz-adv-x="601" 
d="M428 869q0 -63 -29 -96t-103 -33t-103 33t-29 96h68q0 -29 13.5 -44t49.5 -15t49.5 15t13.5 45zM460 58q-11 -15 -25.5 -28t-35 -22.5t-48.5 -15t-67 -5.5q-57 0 -97 12.5t-66 35t-41.5 52.5t-22.5 65t-9 73t-2 77v45v45q0 59 5.5 115t31 100t77.5 71t145 27
q75 0 121.5 -18t72 -48.5t34.5 -71.5t9 -86h-136q0 31 -4.5 54t-15.5 38t-30.5 22.5t-50.5 7.5q-41 0 -63.5 -13t-33.5 -39t-13.5 -66t-2.5 -94v-44v-44q0 -54 2.5 -94t13.5 -66t33.5 -39t63.5 -13q33 0 53.5 9t32 27t15.5 45.5t5 65.5v68h-100v79h236v-386h-78z" />
    <glyph glyph-name="gbreve" unicode="&#x11f;" horiz-adv-x="567" 
d="M412 709q0 -63 -29 -96t-103 -33t-103 33t-29 96h68q0 -29 13.5 -44t49.5 -15t49.5 15t13.5 45zM129 -95q26 -2 61 -2.5t65 -0.5q38 0 62 5t37 19.5t17.5 41t4.5 70.5q-25 -14 -57 -26t-68 -13q-74 -2 -116 16t-62.5 53.5t-25.5 86.5t-5 114q0 65 5 117.5t25.5 89
t62.5 55.5t116 18q44 -1 79 -17t64 -36l13 43h109v-498q0 -69 -12.5 -114.5t-39.5 -72.5t-69.5 -37.5t-102.5 -10.5q-47 0 -90 4t-85 9zM376 424q-22 13 -46 23.5t-48 10.5q-36 0 -56 -10.5t-30.5 -33.5t-13 -58.5t-2.5 -86.5q0 -48 2.5 -82.5t13 -56t30.5 -31.5t56 -10
q23 0 47.5 10.5t45.5 21.5z" />
    <glyph glyph-name="Gdotaccent" unicode="&#x120;" horiz-adv-x="601" 
d="M249 764v81h93v-81h-93zM459 59q-11 -15 -25.5 -28t-35 -22.5t-48.5 -15t-67 -5.5q-57 0 -97 12.5t-66 35t-41.5 52.5t-22.5 65t-9 73t-2 77v45v45q0 59 5.5 115t31 100t77.5 71t145 27q75 0 121.5 -18t72 -48.5t34.5 -71.5t9 -86h-136q0 31 -4.5 54t-15.5 38t-30.5 22.5
t-50.5 7.5q-41 0 -63.5 -13t-33.5 -39t-13.5 -66t-2.5 -94v-44v-44q0 -54 2.5 -94t13.5 -66t33.5 -39t63.5 -13q33 0 53.5 9t32 27t15.5 45.5t5 65.5v68h-100v79h236v-386h-78z" />
    <glyph glyph-name="gdotaccent" unicode="&#x121;" horiz-adv-x="567" 
d="M233 604v81h93v-81h-93zM128 -94q26 -2 61 -2.5t65 -0.5q38 0 62 5t37 19.5t17.5 41t4.5 70.5q-25 -14 -57 -26t-68 -13q-74 -2 -116 16t-62.5 53.5t-25.5 86.5t-5 114q0 65 5 117.5t25.5 89t62.5 55.5t116 18q44 -1 79 -17t64 -36l13 43h109v-498q0 -69 -12.5 -114.5
t-39.5 -72.5t-69.5 -37.5t-102.5 -10.5q-47 0 -90 4t-85 9zM375 425q-22 13 -46 23.5t-48 10.5q-36 0 -56 -10.5t-30.5 -33.5t-13 -58.5t-2.5 -86.5q0 -48 2.5 -82.5t13 -56t30.5 -31.5t56 -10q23 0 47.5 10.5t45.5 21.5z" />
    <glyph glyph-name="uni0122" unicode="&#x122;" horiz-adv-x="601" 
d="M459 59q-11 -15 -25.5 -28t-35 -22.5t-48.5 -15t-67 -5.5q-57 0 -97 12.5t-66 35t-41.5 52.5t-22.5 65t-9 73t-2 77v45v45q0 59 5.5 115t31 100t77.5 71t145 27q75 0 121.5 -18t72 -48.5t34.5 -71.5t9 -86h-136q0 31 -4.5 54t-15.5 38t-30.5 22.5t-50.5 7.5
q-41 0 -63.5 -13t-33.5 -39t-13.5 -66t-2.5 -94v-44v-44q0 -54 2.5 -94t13.5 -66t33.5 -39t63.5 -13q33 0 53.5 9t32 27t15.5 45.5t5 65.5v68h-100v79h236v-386h-78zM247 -197v139h96l-34 -139h-62z" />
    <glyph glyph-name="uni0123" unicode="&#x123;" horiz-adv-x="567" 
d="M229 612l34 138h62v-138h-96zM128 -94q26 -2 61 -2.5t65 -0.5q38 0 62 5t37 19.5t17.5 41t4.5 70.5q-25 -14 -57 -26t-68 -13q-74 -2 -116 16t-62.5 53.5t-25.5 86.5t-5 114q0 65 5 117.5t25.5 89t62.5 55.5t116 18q44 -1 79 -17t64 -36l13 43h109v-498
q0 -69 -12.5 -114.5t-39.5 -72.5t-69.5 -37.5t-102.5 -10.5q-47 0 -90 4t-85 9zM375 425q-22 13 -46 23.5t-48 10.5q-36 0 -56 -10.5t-30.5 -33.5t-13 -58.5t-2.5 -86.5q0 -48 2.5 -82.5t13 -56t30.5 -31.5t56 -10q23 0 47.5 10.5t45.5 21.5z" />
    <glyph glyph-name="Hbar" unicode="&#x126;" horiz-adv-x="650" 
d="M635 613v-102h-59v-510h-145v304h-212v-304h-145v510h-59v102h59v87h145v-87h212v87h145v-87h59zM219 407h212v104h-212v-104z" />
    <glyph glyph-name="hbar" unicode="&#x127;" horiz-adv-x="602" 
d="M307 695v-94h-112v-91q25 14 57 26t68 14h27q64 0 100.5 -17t54.5 -48t22.5 -75t4.5 -98v-313h-139v304q0 45 -2.5 74.5t-13 47.5t-30.5 25.5t-56 7.5q-23 0 -47.5 -10.5t-45.5 -21.5v-427h-139v601h-69v94h69v56h139v-56z" />
    <glyph glyph-name="Itilde" unicode="&#x128;" horiz-adv-x="263" 
d="M299 873q0 -48 -16 -76.5t-42 -38.5q-15 -6 -31 -6q-32 0 -68 18l-40 24q-25 14 -42 14q-8 0 -14 -3q-9 -4 -14.5 -14t-5.5 -31h-59q0 65 23 91.5t61 26.5q31 0 68 -19l40 -23q26 -13 42 -13q8 0 16 3q23 11 23 48zM59 -1v700h145v-700h-145z" />
    <glyph glyph-name="itilde" unicode="&#x129;" horiz-adv-x="244" 
d="M291 713q0 -48 -16 -76.5t-42 -38.5q-15 -6 -31 -6q-32 0 -68 18l-40 24q-25 14 -42 14q-8 0 -14 -3q-9 -4 -14.5 -14t-5.5 -31h-59q0 64 23 91t61 27q31 0 68 -19l40 -23q26 -13 42 -13q8 0 16 3q23 11 23 48zM56 -1v540h139v-540h-139z" />
    <glyph glyph-name="Imacron" unicode="&#x12a;" horiz-adv-x="263" 
d="M-18 771v73h300v-73h-300zM59 0v700h145v-700h-145z" />
    <glyph glyph-name="imacron" unicode="&#x12b;" horiz-adv-x="244" 
d="M-26 611v73h301v-73h-301zM56 0v540h139v-540h-139z" />
    <glyph glyph-name="Iogonek" unicode="&#x12e;" horiz-adv-x="263" 
d="M204 -2q-31 -23 -43 -43t-12 -37q0 -40 45 -40h24v-59h-70q-31 0 -51.5 10.5t-28.5 34.5q-4 12 -4 27q0 48 65 106l-70 3v700h145v-702z" />
    <glyph glyph-name="iogonek" unicode="&#x12f;" horiz-adv-x="244" 
d="M79 617v81h93v-81h-93zM195 -1q-30 -23 -42 -42.5t-12 -36.5q0 -40 45 -40h24v-59h-70q-31 0 -51.5 10.5t-28.5 34.5q-4 11 -4 25q0 49 67 107l-66 2v540h139z" />
    <glyph glyph-name="Idotaccent" unicode="&#x130;" horiz-adv-x="263" 
d="M86 764v81h93v-81h-93zM59 0v700h145v-700h-145z" />
    <glyph glyph-name="dotlessi" unicode="&#x131;" horiz-adv-x="244" 
d="M56 0v540h139v-540h-139z" />
    <glyph glyph-name="IJ" unicode="&#x132;" horiz-adv-x="653" 
d="M59 0v700h145v-700h-145zM593 156q0 -50 -15 -82.5t-40.5 -51t-58.5 -25.5t-70 -7q-35 0 -67 3.5t-55 7.5l9 97q16 -1 30 -1.5t27 -0.5q48 0 72 15.5t24 66.5v419h-119v102h264z" />
    <glyph glyph-name="ij" unicode="&#x133;" horiz-adv-x="498" 
d="M56 594v106h142v-106h-142zM305 594v106h142v-106h-142zM446 -31q0 -72 -29.5 -109.5t-85.5 -46.5q-27 -6 -56 -6q-23 0 -45.5 2.5t-42.5 7.5l8 85q12 -1 22.5 -1.5t19.5 -0.5q11 0 16 1q29 2 41 19t12 49v571h139zM58 0v540h139v-540h-139z" />
    <glyph glyph-name="uni0136" unicode="&#x136;" horiz-adv-x="592" 
d="M410 0l-206 346v-346h-145v700h145v-338l195 338h155l-206 -346l218 -354h-156zM360 -55l-34 -139h-62v139h96z" />
    <glyph glyph-name="uni0137" unicode="&#x137;" 
d="M401 0l-206 282v-282h-139v750h139v-456l180 246h150l-196 -252l223 -288h-151zM330 -55l-34 -139h-62v139h96z" />
    <glyph glyph-name="Lacute" unicode="&#x139;" horiz-adv-x="434" 
d="M139 749l48 127h101l-71 -127h-78zM410 102v-102h-351v700h145v-598h206z" />
    <glyph glyph-name="lacute" unicode="&#x13a;" horiz-adv-x="244" 
d="M57 799l48 127h101l-71 -127h-78zM60 0v750h139v-750h-139z" />
    <glyph glyph-name="uni013B" unicode="&#x13b;" horiz-adv-x="434" 
d="M410 102v-102h-351v700h145v-598h206zM160 -194v139h96l-34 -139h-62z" />
    <glyph glyph-name="uni013C" unicode="&#x13c;" horiz-adv-x="244" 
d="M59 0v750h139v-750h-139zM76 -194v139h96l-34 -139h-62z" />
    <glyph glyph-name="Lcaron" unicode="&#x13d;" horiz-adv-x="481" 
d="M335 612l-4 138h96l-30 -138h-62zM411 103v-102h-351v700h145v-598h206z" />
    <glyph glyph-name="lcaron" unicode="&#x13e;" horiz-adv-x="368" 
d="M59 0v750h139v-750h-139zM261 612l-4 138h96l-30 -138h-62z" />
    <glyph glyph-name="Ldot" unicode="&#x13f;" horiz-adv-x="526" 
d="M410 102v-102h-351v700h145v-598h206zM309 295v140h140v-140h-140z" />
    <glyph glyph-name="ldot" unicode="&#x140;" horiz-adv-x="431" 
d="M59 0v750h139v-750h-139zM262 294v140h140v-140h-140z" />
    <glyph glyph-name="Lslash" unicode="&#x141;" horiz-adv-x="493" 
d="M387 529v-108l-124 -68v-251h206v-102h-351v274l-96 -52v108l96 52v318h145v-239z" />
    <glyph glyph-name="lslash" unicode="&#x142;" horiz-adv-x="410" 
d="M387 531v-108l-127 -70v-352h-140v275l-98 -54v108l98 54v348h140v-272z" />
    <glyph glyph-name="Nacute" unicode="&#x143;" horiz-adv-x="619" 
d="M245 749l48 127h101l-71 -127h-78zM194 494h-6v-494h-132v700h161l211 -481h6v481h132v-700h-152z" />
    <glyph glyph-name="nacute" unicode="&#x144;" horiz-adv-x="571" 
d="M227 592l48 127h101l-71 -127h-78zM172 501q29 17 64.5 32.5t78.5 17.5h27q64 0 100.5 -17t54.5 -48t22.5 -75t4.5 -98v-313h-139v304q0 45 -2.5 74.5t-13 47.5t-30.5 25.5t-56 7.5q-23 0 -47.5 -10.5t-45.5 -21.5v-427h-139v540h109z" />
    <glyph glyph-name="uni0145" unicode="&#x145;" horiz-adv-x="619" 
d="M413 0l-220 494h-6v-494h-132v700h161l211 -481h6v481h132v-700h-152zM266 -194v139h96l-34 -139h-62z" />
    <glyph glyph-name="uni0146" unicode="&#x146;" horiz-adv-x="571" 
d="M172 501q29 17 64.5 32.5t78.5 17.5h27q64 0 100.5 -17t54.5 -48t22.5 -75t4.5 -98v-313h-139v304q0 45 -2.5 74.5t-13 47.5t-30.5 25.5t-56 7.5q-23 0 -47.5 -10.5t-45.5 -21.5v-427h-139v540h109zM247 -192v139h96l-34 -139h-62z" />
    <glyph glyph-name="Ncaron" unicode="&#x147;" horiz-adv-x="619" 
d="M255 741l-77 135h78l59 -79l58 79h78l-77 -135h-119zM195 494h-6v-494h-132v700h161l211 -481h6v481h132v-700h-152z" />
    <glyph glyph-name="ncaron" unicode="&#x148;" horiz-adv-x="571" 
d="M237 585l-77 135h78l58 -79l59 79h78l-77 -135h-119zM173 501q29 17 64.5 32.5t78.5 17.5h27q64 0 100.5 -17t54.5 -48t22.5 -75t4.5 -98v-313h-139v304q0 45 -2.5 74.5t-13 47.5t-30.5 25.5t-56 7.5q-23 0 -47.5 -10.5t-45.5 -21.5v-427h-139v540h109z" />
    <glyph glyph-name="Eng" unicode="&#x14a;" horiz-adv-x="619" 
d="M564 -12q0 -55 -15 -89t-40 -53.5t-58.5 -27t-70.5 -7.5q-35 0 -67 4t-55 7l9 97q17 -1 32.5 -1.5t29.5 -0.5h17t16 1q17 1 30 5t21.5 13t13 24.5t5.5 39.5h-19l-220 494h-6v-494h-132v700h161l211 -481h6v481h132z" />
    <glyph glyph-name="eng" unicode="&#x14b;" horiz-adv-x="571" 
d="M173 501q29 17 64.5 32.5t78.5 17.5h27q64 0 100.5 -17t54.5 -48t22.5 -75t4.5 -98v-344q0 -72 -29.5 -109.5t-85.5 -46.5q-27 -6 -56 -6q-23 0 -45.5 2.5t-42.5 7.5l8 85q12 -1 22.5 -1.5t19.5 -0.5q11 0 16 1q29 2 41 19t12 49v335q0 45 -2.5 74.5t-13 47.5t-30.5 25.5
t-56 7.5q-23 0 -47.5 -10.5t-45.5 -21.5v-427h-139v540h109z" />
    <glyph glyph-name="Omacron" unicode="&#x14c;" horiz-adv-x="609" 
d="M153 771v73h301v-73h-301zM304 708q93 0 145 -27t77.5 -71t31 -100t5.5 -115v-45v-45q0 -59 -5.5 -115t-31 -100t-77.5 -71t-145 -27t-145 27t-77.5 71t-31 100t-5.5 115v45v45q0 59 5.5 115t31 100t77.5 71t145 27zM304 606q-41 0 -63.5 -13t-33.5 -39t-13.5 -66
t-2.5 -94v-44v-44q0 -54 2.5 -94t13.5 -66t33.5 -39t63.5 -13q40 0 63 13t34 39t13.5 66t2.5 94v44v44q0 54 -2.5 94t-13.5 66t-34 39t-63 13z" />
    <glyph glyph-name="omacron" unicode="&#x14d;" horiz-adv-x="567" 
d="M132 611v73h301v-73h-301zM284 548q87 0 136.5 -23t74 -61.5t30 -89t5.5 -104.5t-5.5 -104.5t-30 -89t-74 -61.5t-136.5 -23t-136.5 23t-74 61.5t-30 89t-5.5 104.5t5.5 104.5t30 89t74 61.5t136.5 23zM283 459q-38 0 -59.5 -10.5t-32 -33.5t-13 -59t-2.5 -87t2.5 -87
t13 -58.5t32 -33t59.5 -10.5t60 10.5t32.5 33t13 58.5t2.5 87t-2.5 87t-13 59t-32 33.5t-59.5 10.5h-1z" />
    <glyph glyph-name="Ohungarumlaut" unicode="&#x150;" horiz-adv-x="609" 
d="M156 749l48 127h101l-71 -127h-78zM309 749l49 127h101l-71 -127h-79zM305 709q93 0 145 -27t77.5 -71t31 -100t5.5 -115v-45v-45q0 -59 -5.5 -115t-31 -100t-77.5 -71t-145 -27t-145 27t-77.5 71t-31 100t-5.5 115v45v45q0 59 5.5 115t31 100t77.5 71t145 27zM305 607
q-41 0 -63.5 -13t-33.5 -39t-13.5 -66t-2.5 -94v-44v-44q0 -54 2.5 -94t13.5 -66t33.5 -39t63.5 -13q40 0 63 13t34 39t13.5 66t2.5 94v44v44q0 54 -2.5 94t-13.5 66t-34 39t-63 13z" />
    <glyph glyph-name="ohungarumlaut" unicode="&#x151;" horiz-adv-x="567" 
d="M135 589l48 127h101l-71 -127h-78zM288 589l49 127h101l-71 -127h-79zM284 549q87 0 136.5 -23t74 -61.5t30 -89t5.5 -104.5t-5.5 -104.5t-30 -89t-74 -61.5t-136.5 -23t-136.5 23t-74 61.5t-30 89t-5.5 104.5t5.5 104.5t30 89t74 61.5t136.5 23zM283 460
q-38 0 -59.5 -10.5t-32 -33.5t-13 -59t-2.5 -87t2.5 -87t13 -58.5t32 -33t59.5 -10.5t60 10.5t32.5 33t13 58.5t2.5 87t-2.5 87t-13 59t-32 33.5t-59.5 10.5h-1z" />
    <glyph glyph-name="OE" unicode="&#x152;" horiz-adv-x="910" 
d="M474 57q-23 -30 -62 -47.5t-107 -17.5q-93 0 -145 27t-77.5 71t-31 100t-5.5 115v45v45q0 59 5.5 115t31 100t77.5 71t145 27q68 0 107 -17.5t62 -47.5v56h407v-102h-262v-192h230v-102h-230v-201h262v-102h-407v57zM305 607q-41 0 -63.5 -13t-33.5 -39t-13.5 -66
t-2.5 -94v-44v-44q0 -54 2.5 -94t13.5 -66t33.5 -39t63.5 -13q40 0 63 13t34 39t13.5 66t2.5 94v44v44q0 54 -2.5 94t-13.5 66t-34 39t-63 13z" />
    <glyph glyph-name="oe" unicode="&#x153;" horiz-adv-x="975" 
d="M866 15q-54 -7 -107.5 -14t-119.5 -9q-72 0 -113 20t-65 59q-22 -36 -62.5 -57t-115.5 -21q-87 0 -136.5 23t-74 61.5t-30 89t-5.5 104.5t5.5 104.5t30 89t74 61.5t136.5 23q76 0 117 -21t63 -58q22 37 63 58t117 21q88 0 136.5 -23t70.5 -62t26 -89.5t4 -104.5v-42h-345
q0 -35 3.5 -60t15 -42t32.5 -25t57 -8q48 0 102 2.5t108 4.5zM282 460q-38 0 -59.5 -10.5t-32 -33.5t-13 -59t-2.5 -87t2.5 -87t13 -58.5t32 -33t59.5 -10.5t60 10.5t32.5 33t13 58.5t2.5 87t-2.5 87t-13 59t-32 33.5t-59.5 10.5h-1zM741 311q0 38 -3 66t-12.5 46t-29.5 27
t-55 9q-37 0 -58 -9t-32 -27t-14.5 -45.5t-3.5 -65.5v-14h209z" />
    <glyph glyph-name="Racute" unicode="&#x154;" horiz-adv-x="602" 
d="M224 749l48 127h101l-71 -127h-78zM256 701q66 0 119.5 -3.5t91.5 -23.5t59 -64t21 -126q0 -49 -8 -83.5t-22.5 -58.5t-35.5 -38t-48 -22l129 -281h-149l-111 269q-11 -2 -23 -2h-26h-51v-267h-143v700h197zM201 347h66q30 0 55.5 2t44 13.5t28.5 37.5t10 74t-10 74
t-28.5 37.5t-43.5 13.5t-55 2h-67v-254z" />
    <glyph glyph-name="racute" unicode="&#x155;" horiz-adv-x="381" 
d="M131 589l48 127h101l-71 -127h-78zM177 492q27 18 56.5 34t58.5 19q22 3 46 3h30l-9 -98h-30q-24 0 -43 -4q-24 -2 -49 -16t-46 -28v-402h-139v540h109z" />
    <glyph glyph-name="uni0156" unicode="&#x156;" horiz-adv-x="602" 
d="M256 700q66 0 119.5 -3.5t91.5 -23.5t59 -64t21 -126q0 -49 -8 -83.5t-22.5 -58.5t-35.5 -38t-48 -22l129 -281h-149l-111 269q-11 -2 -23 -2h-26h-51v-267h-143v700h197zM201 346h66q30 0 55.5 2t44 13.5t28.5 37.5t10 74t-10 74t-28.5 37.5t-43.5 13.5t-55 2h-67v-254z
M244 -195v139h96l-34 -139h-62z" />
    <glyph glyph-name="uni0157" unicode="&#x157;" horiz-adv-x="381" 
d="M176 492q27 18 56.5 34t58.5 19q22 3 46 3h30l-9 -98h-30q-24 0 -43 -4q-24 -2 -49 -16t-46 -28v-402h-139v540h109zM152 -194v139h96l-34 -139h-62z" />
    <glyph glyph-name="Rcaron" unicode="&#x158;" horiz-adv-x="602" 
d="M235 741l-77 135h78l58 -79l58 79h78l-77 -135h-118zM258 700q66 0 119.5 -3.5t91.5 -23.5t59 -64t21 -126q0 -49 -8 -83.5t-22.5 -58.5t-35.5 -38t-48 -22l129 -281h-149l-111 269q-11 -2 -23 -2h-26h-51v-267h-143v700h197zM203 346h66q30 0 55.5 2t44 13.5t28.5 37.5
t10 74t-10 74t-28.5 37.5t-43.5 13.5t-55 2h-67v-254z" />
    <glyph glyph-name="rcaron" unicode="&#x159;" horiz-adv-x="381" 
d="M140 581l-77 135h78l59 -79l58 79h78l-77 -135h-119zM177 492q27 18 56.5 34t58.5 19q22 3 46 3h30l-9 -98h-30q-24 0 -43 -4q-24 -2 -49 -16t-46 -28v-402h-139v540h109z" />
    <glyph glyph-name="Sacute" unicode="&#x15a;" horiz-adv-x="563" 
d="M212 749l48 127h101l-71 -127h-78zM170 196q3 -54 27 -78.5t81 -24.5q60 0 84.5 26t24.5 78q0 29 -6 47.5t-19.5 30t-34 17.5t-48.5 9q-67 9 -113.5 21t-75.5 33t-42 55.5t-13 90.5q0 49 11 87t38 64.5t73 40.5t116 14q71 0 117 -14.5t73 -42t37.5 -67t10.5 -89.5h-130
q-1 29 -6 50t-16.5 35t-31 20.5t-49.5 6.5q-59 0 -80 -26.5t-21 -81.5q0 -26 5.5 -42.5t17.5 -26t32.5 -15t50.5 -8.5q63 -9 110 -21t78 -34.5t46.5 -59t15.5 -93.5q0 -46 -13 -84t-42.5 -65t-77.5 -42t-119 -15q-132 0 -191 50t-61 155z" />
    <glyph glyph-name="sacute" unicode="&#x15b;" horiz-adv-x="539" 
d="M202 599l48 127h101l-71 -127h-78zM162 171q1 -50 24 -71t78 -21q53 0 76 18.5t23 55.5q0 42 -20.5 61t-74.5 24q-64 7 -108 15.5t-71.5 24.5t-39.5 41.5t-12 65.5q0 38 9.5 68.5t34 51.5t68.5 32.5t113 11.5q71 0 115.5 -11t69.5 -33.5t34.5 -57t9.5 -81.5h-132
q0 50 -20.5 72.5t-76.5 22.5q-52 0 -72.5 -18.5t-20.5 -57.5q0 -18 5 -30t16.5 -20.5t31 -13t48.5 -7.5q61 -8 105 -18t73 -28t43 -45.5t14 -70.5q0 -35 -11.5 -64.5t-39 -51.5t-73 -34t-112.5 -12q-66 0 -110.5 10.5t-72.5 32.5t-40 56t-13 82h129z" />
    <glyph glyph-name="Scedilla" unicode="&#x15e;" horiz-adv-x="563" 
d="M171 198q3 -54 27 -78.5t81 -24.5q60 0 84.5 26t24.5 78q0 29 -6 47.5t-19.5 30t-34 17.5t-48.5 9q-67 9 -113.5 21t-75.5 33t-42 55.5t-13 90.5q0 49 11 87t38 64.5t73 40.5t116 14q71 0 117 -14.5t73 -42t37.5 -67t10.5 -89.5h-130q-1 29 -6 50t-16.5 35t-31 20.5
t-49.5 6.5q-59 0 -80 -26.5t-21 -81.5q0 -26 5.5 -42.5t17.5 -26t32.5 -15t50.5 -8.5q63 -9 110 -21t78 -34.5t46.5 -59t15.5 -93.5q0 -43 -11 -78.5t-36 -62.5t-65.5 -43.5t-100.5 -20.5l-14 -1l-8 -26h6q18 0 31.5 -3.5t22.5 -12t14 -23.5t5 -39q0 -28 -6.5 -44t-19 -24
t-31 -10t-41.5 -2h-83v47h59q26 0 36 5.5t10 32.5q0 26 -10 31t-36 5h-18l19 63q-119 4 -172.5 53.5t-55.5 149.5z" />
    <glyph glyph-name="scedilla" unicode="&#x15f;" horiz-adv-x="539" 
d="M162 171q1 -50 24 -71t78 -21q53 0 76 18.5t23 55.5q0 42 -20.5 61t-74.5 24q-64 7 -108 15.5t-71.5 24.5t-39.5 41.5t-12 65.5q0 38 9.5 68.5t34 51.5t68.5 32.5t113 11.5q71 0 115.5 -11t69.5 -33.5t34.5 -57t9.5 -81.5h-132q0 50 -20.5 72.5t-76.5 22.5
q-52 0 -72.5 -18.5t-20.5 -57.5q0 -18 5 -30t16.5 -20.5t31 -13t48.5 -7.5q61 -8 105 -18t73 -28t43 -45.5t14 -70.5q0 -32 -10 -60t-32.5 -49t-60 -34t-92.5 -17h-13l-9 -31h6q18 0 31.5 -3.5t22.5 -12t14 -23.5t5 -39q0 -29 -6.5 -45t-19 -23.5t-31 -9.5t-41.5 -2h-83v47
h59q26 0 36 5.5t10 31.5t-10 31t-36 5h-18l21 67q-60 2 -100.5 13.5t-66 33.5t-37 55t-12.5 79h130z" />
    <glyph glyph-name="Scaron" unicode="&#x160;" horiz-adv-x="563" 
d="M223 741l-77 135h78l58 -79l58 79h78l-77 -135h-118zM173 196q3 -54 27 -78.5t81 -24.5q60 0 84.5 26t24.5 78q0 29 -6 47.5t-19.5 30t-34 17.5t-48.5 9q-67 9 -113.5 21t-75.5 33t-42 55.5t-13 90.5q0 49 11 87t38 64.5t73 40.5t116 14q71 0 117 -14.5t73 -42t37.5 -67
t10.5 -89.5h-130q-1 29 -6 50t-16.5 35t-31 20.5t-49.5 6.5q-59 0 -80 -26.5t-21 -81.5q0 -26 5.5 -42.5t17.5 -26t32.5 -15t50.5 -8.5q63 -9 110 -21t78 -34.5t46.5 -59t15.5 -93.5q0 -46 -13 -84t-42.5 -65t-77.5 -42t-119 -15q-132 0 -191 50t-61 155z" />
    <glyph glyph-name="scaron" unicode="&#x161;" horiz-adv-x="539" 
d="M211 600l-77 135h78l59 -79l58 79h78l-77 -135h-119zM162 170q1 -50 24 -71t78 -21q53 0 76 18.5t23 55.5q0 42 -20.5 61t-74.5 24q-64 7 -108 15.5t-71.5 24.5t-39.5 41.5t-12 65.5q0 38 9.5 68.5t34 51.5t68.5 32.5t113 11.5q71 0 115.5 -11t69.5 -33.5t34.5 -57
t9.5 -81.5h-132q0 50 -20.5 72.5t-76.5 22.5q-52 0 -72.5 -18.5t-20.5 -57.5q0 -18 5 -30t16.5 -20.5t31 -13t48.5 -7.5q61 -8 105 -18t73 -28t43 -45.5t14 -70.5q0 -35 -11.5 -64.5t-39 -51.5t-73 -34t-112.5 -12q-66 0 -110.5 10.5t-72.5 32.5t-40 56t-13 82h129z" />
    <glyph glyph-name="uni0162" unicode="&#x162;" horiz-adv-x="497" 
d="M322 598v-598l-42 -6l-9 -28h6q18 0 31.5 -3.5t22.5 -12t14 -23.5t5 -39q0 -29 -6.5 -45t-19 -23.5t-31 -9.5t-41.5 -2h-83v47h59q26 0 36 5.5t10 31.5t-10 31t-36 5h-18l20 66l-54 6v598h-152v102h449v-102h-151z" />
    <glyph glyph-name="uni0163" unicode="&#x163;" horiz-adv-x="363" 
d="M324 540v-94h-109v-287q0 -33 12 -49.5t41 -18.5q5 -1 16 -1q9 0 19.5 0.5t22.5 1.5l8 -92q-18 -3 -35 -5t-33 -3q-6 -2 -12 -2h-11t-10.5 0.5t-10.5 1.5l-7 -24h6q18 -1 31.5 -4.5t22.5 -12t14 -23t5 -38.5q0 -29 -6.5 -45t-19 -24t-31 -10t-41.5 -2h-83v48h59
q26 0 36 5.5t10 31.5t-10 31t-36 5h-18l20 65q-46 11 -72.5 48.5t-26.5 115.5v287h-58v94h58v128h139v-128h110z" />
    <glyph glyph-name="Tcaron" unicode="&#x164;" horiz-adv-x="497" 
d="M191 741l-77 135h78l58 -79l59 79h78l-77 -135h-119zM322 598v-598h-145v598h-152v102h449v-102h-152z" />
    <glyph glyph-name="tcaron" unicode="&#x165;" horiz-adv-x="433" 
d="M314 612l-4 138h96l-30 -138h-62zM324 541v-94h-109v-287q0 -33 12 -49.5t41 -18.5q5 -1 16 -1q9 0 19.5 0.5t22.5 1.5l8 -92q-29 -4 -56.5 -7.5t-52.5 -3.5q-35 0 -62.5 8.5t-47 28t-29.5 52.5t-10 81v287h-58v94h58v128h139v-128h109z" />
    <glyph glyph-name="Tbar" unicode="&#x166;" horiz-adv-x="497" 
d="M98 771v73h301v-73h-301zM320 598v-598h-145v598h-152v102h449v-102h-152z" />
    <glyph glyph-name="tbar" unicode="&#x167;" horiz-adv-x="363" 
d="M323 540v-94h-109v-103h109v-73h-109v-110q0 -33 12 -49.5t41 -18.5q5 -1 16 -1q9 0 19.5 0.5t22.5 1.5l8 -92q-29 -4 -56.5 -7.5t-52.5 -3.5q-35 0 -62.5 8.5t-47 28t-29.5 52.5t-10 81v110h-58v73h58v103h-58v94h58v128h139v-128h109z" />
    <glyph glyph-name="Utilde" unicode="&#x168;" horiz-adv-x="611" 
d="M472 873q0 -48 -16 -76.5t-42 -38.5q-15 -6 -31 -6q-32 0 -68 18l-40 24q-25 14 -42 14q-8 0 -14 -3q-9 -4 -14.5 -14t-5.5 -31h-59q0 65 23 91.5t61 26.5q31 0 68 -19l40 -23q26 -13 42 -13q8 0 16 3q23 11 23 48zM552 330q0 -20 0.5 -40t0.5 -40q0 -52 -6.5 -99
t-31.5 -82.5t-74.5 -56.5t-135.5 -21t-135.5 21t-74.5 56.5t-31.5 82.5t-6.5 99q0 20 0.5 40t0.5 40v369h145v-369v-85q0 -42 3 -71.5t13.5 -47.5t31 -26.5t56.5 -8.5t56.5 8.5t31 26.5t13.5 47.5t3 71.5v85v369h145z" />
    <glyph glyph-name="utilde" unicode="&#x169;" 
d="M448 713q0 -48 -16 -76.5t-42 -38.5q-15 -6 -31 -6q-32 0 -68 18l-40 24q-25 14 -42 14q-8 0 -14 -3q-9 -4 -14.5 -14t-5.5 -31h-59q0 65 23 91.5t61 26.5q31 0 68 -19l40 -23q26 -13 42 -13q8 0 16 3q23 11 23 48zM410 -1l-13 41q-29 -17 -64.5 -33t-78.5 -18
q-74 -3 -115.5 12t-62 46.5t-25.5 76.5t-5 102v313h139v-313q0 -41 2.5 -69t13 -45t30.5 -24.5t56 -7.5q23 0 47.5 10.5t45.5 21.5v427h139v-540h-109z" />
    <glyph glyph-name="Umacron" unicode="&#x16a;" horiz-adv-x="611" 
d="M155 771v73h301v-73h-301zM552 330q0 -20 0.5 -40t0.5 -40q0 -52 -6.5 -99t-31.5 -82.5t-74.5 -56.5t-135.5 -21t-135.5 21t-74.5 56.5t-31.5 82.5t-6.5 99q0 20 0.5 40t0.5 40v369h145v-369v-85q0 -42 3 -71.5t13.5 -47.5t31 -26.5t56.5 -8.5t56.5 8.5t31 26.5
t13.5 47.5t3 71.5v85v369h145z" />
    <glyph glyph-name="umacron" unicode="&#x16b;" 
d="M131 611v73h301v-73h-301zM410 0l-13 41q-29 -17 -64.5 -33t-78.5 -18q-74 -3 -115.5 12t-62 46.5t-25.5 76.5t-5 102v313h139v-313q0 -41 2.5 -69t13 -45t30.5 -24.5t56 -7.5q23 0 47.5 10.5t45.5 21.5v427h139v-540h-109z" />
    <glyph glyph-name="Uring" unicode="&#x16e;" horiz-adv-x="611" 
d="M307 913q27 0 48.5 -2.5t36.5 -12t22.5 -30t7.5 -56.5t-7.5 -56.5t-22.5 -30t-36.5 -12t-48.5 -2.5t-48.5 2.5t-36.5 12t-22.5 30t-7.5 56.5t7.5 56.5t22.5 30t36.5 12t48.5 2.5zM309 860q-14 0 -24.5 -1t-17.5 -6t-10 -15t-3 -28t3 -28t10 -15t17.5 -6t24.5 -1
q28 0 41.5 7t13.5 43t-13.5 43t-41.5 7zM552 330q0 -20 0.5 -40t0.5 -40q0 -52 -6.5 -99t-31.5 -82.5t-74.5 -56.5t-135.5 -21t-135.5 21t-74.5 56.5t-31.5 82.5t-6.5 99q0 20 0.5 40t0.5 40v369h145v-369v-85q0 -42 3 -71.5t13.5 -47.5t31 -26.5t56.5 -8.5t56.5 8.5
t31 26.5t13.5 47.5t3 71.5v85v369h145z" />
    <glyph glyph-name="uring" unicode="&#x16f;" 
d="M283 753q27 0 48.5 -2.5t36.5 -12t22.5 -30t7.5 -56.5t-7.5 -56.5t-22.5 -30t-36.5 -12t-48.5 -2.5t-48.5 2.5t-36.5 12t-22.5 30t-7.5 56.5t7.5 56.5t22.5 30t36.5 12t48.5 2.5zM285 700q-14 0 -24.5 -1t-17.5 -6t-10 -15t-3 -28t3 -28t10 -15t17.5 -6t24.5 -1
q28 0 41.5 7t13.5 43t-13.5 43t-41.5 7zM410 0l-13 41q-29 -17 -64.5 -33t-78.5 -18q-74 -3 -115.5 12t-62 46.5t-25.5 76.5t-5 102v313h139v-313q0 -41 2.5 -69t13 -45t30.5 -24.5t56 -7.5q23 0 47.5 10.5t45.5 21.5v427h139v-540h-109z" />
    <glyph glyph-name="Uhungarumlaut" unicode="&#x170;" horiz-adv-x="611" 
d="M158 749l48 127h101l-71 -127h-78zM311 749l49 127h101l-71 -127h-79zM553 331q0 -20 0.5 -40t0.5 -40q0 -52 -6.5 -99t-31.5 -82.5t-74.5 -56.5t-135.5 -21t-135.5 21t-74.5 56.5t-31.5 82.5t-6.5 99q0 20 0.5 40t0.5 40v369h145v-369v-85q0 -42 3 -71.5t13.5 -47.5
t31 -26.5t56.5 -8.5t56.5 8.5t31 26.5t13.5 47.5t3 71.5v85v369h145z" />
    <glyph glyph-name="uhungarumlaut" unicode="&#x171;" 
d="M134 589l48 127h101l-71 -127h-78zM287 589l49 127h101l-71 -127h-79zM411 0l-13 41q-29 -17 -64.5 -33t-78.5 -18q-74 -3 -115.5 12t-62 46.5t-25.5 76.5t-5 102v313h139v-313q0 -41 2.5 -69t13 -45t30.5 -24.5t56 -7.5q23 0 47.5 10.5t45.5 21.5v427h139v-540h-109z
" />
    <glyph glyph-name="Uogonek" unicode="&#x172;" horiz-adv-x="611" 
d="M553 332q0 -20 0.5 -40t0.5 -40q0 -41 -3.5 -79t-16.5 -70t-39 -56.5t-70 -37.5q-30 -23 -42 -43.5t-12 -37.5q0 -22 11.5 -30.5t32.5 -8.5h24v-59h-70q-31 0 -51.5 10.5t-28.5 34.5q-5 15 -5 27q0 42 52 90q-17 -1 -29.5 -1h-24.5q-78 3 -123 25t-67.5 57t-28.5 81
t-6 96q0 20 0.5 40t0.5 40v369h145v-369v-85q0 -42 3 -71.5t13.5 -47.5t31 -26.5t56.5 -8.5t56.5 8.5t31 26.5t13.5 47.5t3 71.5v85v369h145z" />
    <glyph glyph-name="uogonek" unicode="&#x173;" 
d="M476 -3q-26 -21 -36 -39.5t-10 -34.5q0 -40 45 -40h24v-58h-70q-31 0 -51.5 10.5t-28.5 34.5q-5 15 -5 27q0 24 16 49t51 55l-13 40q-29 -17 -64.5 -33t-78.5 -18q-74 -3 -115.5 12t-62 46.5t-25.5 76.5t-5 102v313h139v-313q0 -41 2.5 -69t13 -45t30.5 -24.5t56 -7.5
q23 0 47.5 10.5t45.5 21.5v427h139v-543h-44z" />
    <glyph glyph-name="Wcircumflex" unicode="&#x174;" horiz-adv-x="915" 
d="M515 741l-58 79l-58 -79h-79l77 135h120l77 -135h-79zM555 0l-100 449l-101 -449h-192l-136 700h147l91 -590h14l115 590h125l115 -590h14l91 590h147l-136 -700h-194z" />
    <glyph glyph-name="wcircumflex" unicode="&#x175;" horiz-adv-x="813" 
d="M464 581l-58 79l-58 -79h-79l77 135h120l77 -135h-79zM483 0l-76 363l-77 -363h-186l-129 540h140l81 -446h18l87 446h130l87 -446h18l81 446h140l-129 -540h-185z" />
    <glyph glyph-name="Ycircumflex" unicode="&#x176;" horiz-adv-x="554" 
d="M335 741l-58 79l-58 -79h-79l77 135h120l77 -135h-79zM349 0h-145v237l-184 463h149l107 -319l107 319h149l-182 -457z" />
    <glyph glyph-name="ycircumflex" unicode="&#x177;" horiz-adv-x="547" 
d="M328 594l-58 79l-58 -79h-79l77 135h120l77 -135h-79zM369 22q-25 -78 -55 -122t-74 -65q-29 -15 -65.5 -20.5t-83.5 -5.5h-22t-22 1l8 91q11 -1 21.5 -1.5t20.5 -0.5q23 0 41.5 2.5t34.5 9.5q23 10 41 30.5t37 58.5h-65l-174 540h149l104 -446h16l106 446h147z" />
    <glyph glyph-name="Ydieresis" unicode="&#x178;" horiz-adv-x="554" 
d="M141 764v81h94v-81h-94zM317 764v81h93v-81h-93zM349 0h-145v237l-184 463h149l107 -319l107 319h149l-182 -457z" />
    <glyph glyph-name="Zacute" unicode="&#x179;" horiz-adv-x="510" 
d="M188 749l48 127h101l-71 -127h-78zM186 102h294v-102h-451v92l284 506h-269v102h427v-90z" />
    <glyph glyph-name="zacute" unicode="&#x17a;" horiz-adv-x="507" 
d="M184 589l48 127h101l-71 -127h-78zM188 95h287v-94h-449v84l278 362h-263v94h426v-84z" />
    <glyph glyph-name="Zdotaccent" unicode="&#x17b;" horiz-adv-x="510" 
d="M211 764v81h93v-81h-93zM187 101h294v-102h-451v92l284 506h-269v102h427v-90z" />
    <glyph glyph-name="zdotaccent" unicode="&#x17c;" horiz-adv-x="507" 
d="M206 604v81h93v-81h-93zM188 94h287v-94h-449v84l278 362h-263v94h426v-84z" />
    <glyph glyph-name="Zcaron" unicode="&#x17d;" horiz-adv-x="510" 
d="M198 741l-77 135h78l59 -79l58 79h78l-77 -135h-119zM188 101h294v-102h-451v92l284 506h-269v102h427v-90z" />
    <glyph glyph-name="zcaron" unicode="&#x17e;" horiz-adv-x="507" 
d="M193 581l-77 135h78l59 -79l58 79h78l-77 -135h-119zM188 94h287v-94h-449v84l278 362h-263v94h426v-84z" />
    <glyph glyph-name="florin" unicode="&#x192;" horiz-adv-x="403" 
d="M110 586q0 75 38.5 115t107.5 46q8 1 15.5 1.5t15.5 0.5q44 0 91 -12l-8 -84q-26 3 -45 3h-11.5t-10.5 -1q-29 -2 -41 -19.5t-12 -49.5v-150h102v-94h-102v-373q0 -58 -22 -90.5t-55 -47.5q-21 -10 -45 -14t-49 -4t-47 3l8 85q21 2 36.5 5.5t24.5 13.5q13 16 13 49v373
h-57v94h57z" />
    <glyph glyph-name="uni01CD" unicode="&#x1cd;" horiz-adv-x="598" 
d="M241 741l-77 135h78l58 -79l58 79h78l-77 -135h-118zM433 0l-34 160h-197l-34 -160h-145l165 700h227l165 -700h-147zM214 262h170l-74 336h-21z" />
    <glyph glyph-name="uni01CE" unicode="&#x1ce;" horiz-adv-x="561" 
d="M226 586l-77 135h78l58 -79l59 79h78l-77 -135h-119zM63 359q0 40 9.5 74.5t34 59.5t68 39.5t111.5 14.5q84 0 130 -17t68.5 -49.5t27 -78t4.5 -102.5v-32v-270h-109l-13 43q-35 -25 -76 -38.5t-77 -14.5q-55 -1 -94 3t-63.5 20t-36 46t-11.5 80q0 35 8.5 64.5t29.5 51
t57.5 35t93.5 16.5l153 8q0 41 -2.5 69t-12 45t-28.5 24.5t-52 7.5q-55 0 -74 -23.5t-19 -74.5zM264 240q-55 -3 -73 -24.5t-19 -59.5q0 -27 5 -42.5t16.5 -24t30 -10.5t46.5 -2q29 0 56.5 14t49.5 28v127z" />
    <glyph glyph-name="uni01CF" unicode="&#x1cf;" horiz-adv-x="263" 
d="M74 741l-77 135h79l58 -79l58 79h78l-77 -135h-119zM61 0v700h145v-700h-145z" />
    <glyph glyph-name="uni01D0" unicode="&#x1d0;" horiz-adv-x="244" 
d="M67 581l-77 135h78l58 -79l58 79h78l-77 -135h-118zM58 0v540h139v-540h-139z" />
    <glyph glyph-name="uni01D1" unicode="&#x1d1;" horiz-adv-x="609" 
d="M246 741l-77 135h78l58 -79l58 79h78l-77 -135h-118zM306 709q93 0 145 -27t77.5 -71t31 -100t5.5 -115v-45v-45q0 -59 -5.5 -115t-31 -100t-77.5 -71t-145 -27t-145 27t-77.5 71t-31 100t-5.5 115v45v45q0 59 5.5 115t31 100t77.5 71t145 27zM306 607q-41 0 -63.5 -13
t-33.5 -39t-13.5 -66t-2.5 -94v-44v-44q0 -54 2.5 -94t13.5 -66t33.5 -39t63.5 -13q40 0 63 13t34 39t13.5 66t2.5 94v44v44q0 54 -2.5 94t-13.5 66t-34 39t-63 13z" />
    <glyph glyph-name="uni01D2" unicode="&#x1d2;" horiz-adv-x="567" 
d="M225 581l-77 135h78l58 -79l58 79h78l-77 -135h-118zM286 548q87 0 136.5 -23t74 -61.5t30 -89t5.5 -104.5t-5.5 -104.5t-30 -89t-74 -61.5t-136.5 -23t-136.5 23t-74 61.5t-30 89t-5.5 104.5t5.5 104.5t30 89t74 61.5t136.5 23zM285 459q-38 0 -59.5 -10.5t-32 -33.5
t-13 -59t-2.5 -87t2.5 -87t13 -58.5t32 -33t59.5 -10.5t60 10.5t32.5 33t13 58.5t2.5 87t-2.5 87t-13 59t-32 33.5t-59.5 10.5h-1z" />
    <glyph glyph-name="uni01D3" unicode="&#x1d3;" horiz-adv-x="611" 
d="M248 741l-77 135h78l58 -79l58 79h78l-77 -135h-118zM554 330q0 -20 0.5 -40t0.5 -40q0 -52 -6.5 -99t-31.5 -82.5t-74.5 -56.5t-135.5 -21t-135.5 21t-74.5 56.5t-31.5 82.5t-6.5 99q0 20 0.5 40t0.5 40v369h145v-369v-85q0 -42 3 -71.5t13.5 -47.5t31 -26.5t56.5 -8.5
t56.5 8.5t31 26.5t13.5 47.5t3 71.5v85v369h145z" />
    <glyph glyph-name="uni01D4" unicode="&#x1d4;" 
d="M223 581l-77 135h78l59 -79l58 79h78l-77 -135h-119zM411 0l-13 41q-29 -17 -64.5 -33t-78.5 -18q-74 -3 -115.5 12t-62 46.5t-25.5 76.5t-5 102v313h139v-313q0 -41 2.5 -69t13 -45t30.5 -24.5t56 -7.5q23 0 47.5 10.5t45.5 21.5v427h139v-540h-109z" />
    <glyph glyph-name="uni01D5" unicode="&#x1d5;" horiz-adv-x="611" 
d="M155 887v73h301v-73h-301zM170 765v81h94v-81h-94zM346 765v81h93v-81h-93zM551 331q0 -20 0.5 -40t0.5 -40q0 -52 -6.5 -99t-31.5 -82.5t-74.5 -56.5t-135.5 -21t-135.5 21t-74.5 56.5t-31.5 82.5t-6.5 99q0 20 0.5 40t0.5 40v369h145v-369v-85q0 -42 3 -71.5
t13.5 -47.5t31 -26.5t56.5 -8.5t56.5 8.5t31 26.5t13.5 47.5t3 71.5v85v369h145z" />
    <glyph glyph-name="uni01D6" unicode="&#x1d6;" 
d="M131 737v73h301v-73h-301zM146 604v81h94v-81h-94zM322 604v81h93v-81h-93zM410 0l-13 41q-29 -17 -64.5 -33t-78.5 -18q-74 -3 -115.5 12t-62 46.5t-25.5 76.5t-5 102v313h139v-313q0 -41 2.5 -69t13 -45t30.5 -24.5t56 -7.5q23 0 47.5 10.5t45.5 21.5v427h139v-540
h-109z" />
    <glyph glyph-name="uni01D7" unicode="&#x1d7;" horiz-adv-x="611" 
d="M237 887l48 127h101l-71 -127h-78zM170 765v81h94v-81h-94zM346 765v81h93v-81h-93zM551 331q0 -20 0.5 -40t0.5 -40q0 -52 -6.5 -99t-31.5 -82.5t-74.5 -56.5t-135.5 -21t-135.5 21t-74.5 56.5t-31.5 82.5t-6.5 99q0 20 0.5 40t0.5 40v369h145v-369v-85q0 -42 3 -71.5
t13.5 -47.5t31 -26.5t56.5 -8.5t56.5 8.5t31 26.5t13.5 47.5t3 71.5v85v369h145z" />
    <glyph glyph-name="uni01D8" unicode="&#x1d8;" 
d="M214 730l48 127h101l-71 -127h-78zM147 604v81h94v-81h-94zM323 604v81h93v-81h-93zM411 0l-13 41q-29 -17 -64.5 -33t-78.5 -18q-74 -3 -115.5 12t-62 46.5t-25.5 76.5t-5 102v313h139v-313q0 -41 2.5 -69t13 -45t30.5 -24.5t56 -7.5q23 0 47.5 10.5t45.5 21.5v427h139
v-540h-109z" />
    <glyph glyph-name="uni01D9" unicode="&#x1d9;" horiz-adv-x="611" 
d="M248 887l-77 135h78l58 -79l58 79h78l-77 -135h-118zM173 765v81h94v-81h-94zM349 765v81h93v-81h-93zM554 331q0 -20 0.5 -40t0.5 -40q0 -52 -6.5 -99t-31.5 -82.5t-74.5 -56.5t-135.5 -21t-135.5 21t-74.5 56.5t-31.5 82.5t-6.5 99q0 20 0.5 40t0.5 40v369h145v-369
v-85q0 -42 3 -71.5t13.5 -47.5t31 -26.5t56.5 -8.5t56.5 8.5t31 26.5t13.5 47.5t3 71.5v85v369h145z" />
    <glyph glyph-name="uni01DA" unicode="&#x1da;" 
d="M223 730l-77 135h78l59 -79l58 79h78l-77 -135h-119zM148 604v81h94v-81h-94zM324 604v81h93v-81h-93zM412 0l-13 41q-29 -17 -64.5 -33t-78.5 -18q-74 -3 -115.5 12t-62 46.5t-25.5 76.5t-5 102v313h139v-313q0 -41 2.5 -69t13 -45t30.5 -24.5t56 -7.5q23 0 47.5 10.5
t45.5 21.5v427h139v-540h-109z" />
    <glyph glyph-name="uni01DB" unicode="&#x1db;" horiz-adv-x="611" 
d="M305 887l-71 127h101l48 -127h-78zM171 765v81h94v-81h-94zM347 765v81h93v-81h-93zM552 331q0 -20 0.5 -40t0.5 -40q0 -52 -6.5 -99t-31.5 -82.5t-74.5 -56.5t-135.5 -21t-135.5 21t-74.5 56.5t-31.5 82.5t-6.5 99q0 20 0.5 40t0.5 40v369h145v-369v-85q0 -42 3 -71.5
t13.5 -47.5t31 -26.5t56.5 -8.5t56.5 8.5t31 26.5t13.5 47.5t3 71.5v85v369h145z" />
    <glyph glyph-name="uni01DC" unicode="&#x1dc;" 
d="M282 730l-71 127h101l48 -127h-78zM148 604v81h94v-81h-94zM324 604v81h93v-81h-93zM412 0l-13 41q-29 -17 -64.5 -33t-78.5 -18q-74 -3 -115.5 12t-62 46.5t-25.5 76.5t-5 102v313h139v-313q0 -41 2.5 -69t13 -45t30.5 -24.5t56 -7.5q23 0 47.5 10.5t45.5 21.5v427h139
v-540h-109z" />
    <glyph glyph-name="uni01DE" unicode="&#x1de;" horiz-adv-x="598" 
d="M147 871v73h301v-73h-301zM162 745v81h94v-81h-94zM338 745v81h93v-81h-93zM429 0l-34 160h-197l-34 -160h-145l165 700h227l165 -700h-147zM210 262h170l-74 336h-21z" />
    <glyph glyph-name="uni01DF" unicode="&#x1df;" horiz-adv-x="561" 
d="M134 738v73h301v-73h-301zM149 610v81h94v-81h-94zM325 610v81h93v-81h-93zM61 360q0 40 9.5 74.5t34 59.5t68 39.5t111.5 14.5q84 0 130 -17t68.5 -49.5t27 -78t4.5 -102.5v-32v-270h-109l-13 43q-35 -25 -76 -38.5t-77 -14.5q-55 -1 -94 3t-63.5 20t-36 46t-11.5 80
q0 35 8.5 64.5t29.5 51t57.5 35t93.5 16.5l153 8q0 41 -2.5 69t-12 45t-28.5 24.5t-52 7.5q-55 0 -74 -23.5t-19 -74.5zM262 241q-55 -3 -73 -24.5t-19 -59.5q0 -27 5 -42.5t16.5 -24t30 -10.5t46.5 -2q29 0 56.5 14t49.5 28v127z" />
    <glyph glyph-name="Gcaron" unicode="&#x1e6;" horiz-adv-x="601" 
d="M236 741l-77 135h78l59 -79l58 79h78l-77 -135h-119zM459 59q-11 -15 -25.5 -28t-35 -22.5t-48.5 -15t-67 -5.5q-57 0 -97 12.5t-66 35t-41.5 52.5t-22.5 65t-9 73t-2 77v45v45q0 59 5.5 115t31 100t77.5 71t145 27q75 0 121.5 -18t72 -48.5t34.5 -71.5t9 -86h-136
q0 31 -4.5 54t-15.5 38t-30.5 22.5t-50.5 7.5q-41 0 -63.5 -13t-33.5 -39t-13.5 -66t-2.5 -94v-44v-44q0 -54 2.5 -94t13.5 -66t33.5 -39t63.5 -13q33 0 53.5 9t32 27t15.5 45.5t5 65.5v68h-100v79h236v-386h-78z" />
    <glyph glyph-name="gcaron" unicode="&#x1e7;" horiz-adv-x="567" 
d="M220 581l-77 135h78l58 -79l59 79h78l-77 -135h-119zM129 -94q26 -2 61 -2.5t65 -0.5q38 0 62 5t37 19.5t17.5 41t4.5 70.5q-25 -14 -57 -26t-68 -13q-74 -2 -116 16t-62.5 53.5t-25.5 86.5t-5 114q0 65 5 117.5t25.5 89t62.5 55.5t116 18q44 -1 79 -17t64 -36l13 43h109
v-498q0 -69 -12.5 -114.5t-39.5 -72.5t-69.5 -37.5t-102.5 -10.5q-47 0 -90 4t-85 9zM376 425q-22 13 -46 23.5t-48 10.5q-36 0 -56 -10.5t-30.5 -33.5t-13 -58.5t-2.5 -86.5q0 -48 2.5 -82.5t13 -56t30.5 -31.5t56 -10q23 0 47.5 10.5t45.5 21.5z" />
    <glyph glyph-name="Oslashacute" unicode="&#x1fe;" horiz-adv-x="609" 
d="M236 749l48 127h101l-71 -127h-78zM462 676q36 -20 56.5 -50.5t30.5 -67.5t12.5 -78.5t2.5 -83.5v-45v-45q0 -59 -5.5 -115t-31 -100t-77.5 -71t-145 -27q-19 0 -36 1.5t-32 3.5l-15 -46h-98l25 74q-36 20 -56.5 50.5t-30.5 67.5t-12.5 78.5t-2.5 83.5v45v45
q0 59 5.5 115t31 100t77.5 71t145 27q19 0 36 -1.5t32 -3.5l15 46h98zM340 603q-15 3 -35 3q-41 0 -63.5 -13t-33.5 -39t-13.5 -66t-2.5 -94v-44v-44q0 -40 1 -72t6 -57zM270 96q15 -3 35 -3q40 0 63 13t34 39t13.5 66t2.5 94v44v44q0 40 -1 72t-6 57z" />
    <glyph glyph-name="oslashacute" unicode="&#x1ff;" horiz-adv-x="567" 
d="M215 589l48 127h101l-71 -127h-78zM409 529q42 -16 66 -42.5t36 -60.5t15 -74t3 -82q0 -54 -5.5 -104.5t-30 -89t-74 -61.5t-136.5 -23q-27 0 -51 3l-14 -43h-82l20 60q-42 16 -65.5 42.5t-35.5 60.5t-15 74t-3 82q0 54 5.5 104.5t30 89t74 61.5t136.5 23q27 0 51 -3
l15 44h82zM303 458q-5 1 -10.5 1h-11.5q-38 0 -59.5 -10.5t-32 -33.5t-13 -59t-2.5 -87q0 -53 3 -89t15 -59zM260 82q5 -1 10.5 -1h11.5q38 0 60 10.5t32.5 33t13 58.5t2.5 87q0 53 -3 89t-15 59z" />
    <glyph glyph-name="uni0218" unicode="&#x218;" horiz-adv-x="563" 
d="M170 196q3 -54 27 -78.5t81 -24.5q60 0 84.5 26t24.5 78q0 29 -6 47.5t-19.5 30t-34 17.5t-48.5 9q-67 9 -113.5 21t-75.5 33t-42 55.5t-13 90.5q0 49 11 87t38 64.5t73 40.5t116 14q71 0 117 -14.5t73 -42t37.5 -67t10.5 -89.5h-130q-1 29 -6 50t-16.5 35t-31 20.5
t-49.5 6.5q-59 0 -80 -26.5t-21 -81.5q0 -26 5.5 -42.5t17.5 -26t32.5 -15t50.5 -8.5q63 -9 110 -21t78 -34.5t46.5 -59t15.5 -93.5q0 -46 -13 -84t-42.5 -65t-77.5 -42t-119 -15q-132 0 -191 50t-61 155zM230 -195v139h96l-34 -139h-62z" />
    <glyph glyph-name="uni0219" unicode="&#x219;" horiz-adv-x="539" 
d="M161 171q1 -50 24 -71t78 -21q53 0 76 18.5t23 55.5q0 42 -20.5 61t-74.5 24q-64 7 -108 15.5t-71.5 24.5t-39.5 41.5t-12 65.5q0 38 9.5 68.5t34 51.5t68.5 32.5t113 11.5q71 0 115.5 -11t69.5 -33.5t34.5 -57t9.5 -81.5h-132q0 50 -20.5 72.5t-76.5 22.5
q-52 0 -72.5 -18.5t-20.5 -57.5q0 -18 5 -30t16.5 -20.5t31 -13t48.5 -7.5q61 -8 105 -18t73 -28t43 -45.5t14 -70.5q0 -35 -11.5 -64.5t-39 -51.5t-73 -34t-112.5 -12q-66 0 -110.5 10.5t-72.5 32.5t-40 56t-13 82h129zM221 -200v138h96l-34 -138h-62z" />
    <glyph glyph-name="uni021A" unicode="&#x21a;" horiz-adv-x="497" 
d="M321 598v-598h-145v598h-152v102h449v-102h-152zM202 -194v139h96l-34 -139h-62z" />
    <glyph glyph-name="uni021B" unicode="&#x21b;" horiz-adv-x="363" 
d="M323 540v-94h-109v-287q0 -33 12 -49.5t41 -18.5q5 -1 16 -1q9 0 19.5 0.5t22.5 1.5l8 -92q-29 -4 -56.5 -7.5t-52.5 -3.5q-35 0 -62.5 8.5t-47 28t-29.5 52.5t-10 81v287h-58v94h58v128h139v-128h109zM150 -194v139h96l-34 -139h-62z" />
    <glyph glyph-name="uni0228" unicode="&#x228;" horiz-adv-x="495" 
d="M203 597v-192h230v-102h-230v-201h262v-102h-188l-10 -34h6q18 0 31.5 -3.5t22.5 -12t14 -23.5t5 -39q0 -29 -6.5 -45t-19 -23.5t-31 -9.5t-41.5 -2h-83v47h59q26 0 36 5.5t10 31.5t-10 31t-36 5h-18l22 72h-169v700h407v-102z" />
    <glyph glyph-name="uni0229" unicode="&#x229;" horiz-adv-x="555" 
d="M251 -7q-57 3 -97 19t-66 49.5t-38 85t-12 124.5q0 54 5.5 104.5t30 89t74 61.5t136.5 23q88 0 136.5 -23t70.5 -62t26 -89.5t4 -104.5v-42h-345q0 -35 3.5 -60t15 -42t32.5 -25t57 -8q48 0 101.5 2.5t108.5 4.5l13 -86q-43 -7 -87.5 -13t-103.5 -8h-17l-8 -28h6
q18 0 31.5 -3.5t22.5 -12t14 -23.5t5 -39q0 -28 -6.5 -44t-19 -24t-31 -10t-41.5 -2h-83v48h59q26 0 36 5t10 32q0 26 -10 31t-36 5h-18zM384 312q0 38 -3 66t-12.5 46t-29.5 27t-55 9q-37 0 -58 -9t-32 -27.5t-14.5 -46.5t-3.5 -66v-13h209z" />
    <glyph glyph-name="circumflex" unicode="&#x2c6;" horiz-adv-x="349" 
d="M232 581l-58 79l-58 -79h-79l77 135h120l77 -135h-79z" />
    <glyph glyph-name="caron" unicode="&#x2c7;" horiz-adv-x="349" 
d="M116 581l-77 135h78l58 -79l58 79h78l-77 -135h-118z" />
    <glyph glyph-name="breve" unicode="&#x2d8;" horiz-adv-x="337" 
d="M301 709q0 -63 -29 -96t-103 -33t-103 33t-29 96h68q0 -29 13.5 -44t49.5 -15t49.5 15t13.5 45z" />
    <glyph glyph-name="dotaccent" unicode="&#x2d9;" horiz-adv-x="167" 
d="M37 604v81h93v-81h-93z" />
    <glyph glyph-name="ring" unicode="&#x2da;" horiz-adv-x="305" 
d="M153 753q27 0 48.5 -2.5t36.5 -12t22.5 -30t7.5 -56.5t-7.5 -56.5t-22.5 -30t-36.5 -12t-48.5 -2.5t-48.5 2.5t-36.5 12t-22.5 30t-7.5 56.5t7.5 56.5t22.5 30t36.5 12t48.5 2.5zM155 700q-14 0 -24.5 -1t-17.5 -6t-10 -15t-3 -28t3 -28t10 -15t17.5 -6t24.5 -1
q28 0 41.5 7t13.5 43t-13.5 43t-41.5 7z" />
    <glyph glyph-name="ogonek" unicode="&#x2db;" horiz-adv-x="229" 
d="M181 1q-32 -24 -45 -44.5t-13 -37.5q0 -39 45 -39h24v-59h-70q-31 0 -51.5 10.5t-28.5 34.5q-5 15 -5 27q0 25 16.5 50.5t53.5 56.5z" />
    <glyph glyph-name="tilde" unicode="&#x2dc;" horiz-adv-x="407" 
d="M369 713q0 -48 -16 -76.5t-42 -38.5q-15 -6 -31 -6q-32 0 -68 18l-40 24q-25 14 -42 14q-8 0 -14 -3q-9 -4 -14.5 -14t-5.5 -31h-59q0 65 23 91.5t61 26.5q31 0 68 -19l40 -23q26 -13 42 -13q8 0 16 3q23 11 23 48z" />
    <glyph glyph-name="hungarumlaut" unicode="&#x2dd;" horiz-adv-x="377" 
d="M38 589l48 127h101l-71 -127h-78zM191 589l49 127h101l-71 -127h-79z" />
    <glyph glyph-name="dotbelowcomb" unicode="&#x323;" horiz-adv-x="0" 
d="M38 -167v80h93v-80h-93z" />
    <glyph glyph-name="uni0326" unicode="&#x326;" horiz-adv-x="0" 
d="M38 -194v139h96l-34 -139h-62z" />
    <glyph glyph-name="uni032D" unicode="&#x32d;" horiz-adv-x="0" 
d="M232 -193l-58 79l-58 -79h-79l77 134h120l77 -134h-79z" />
    <glyph glyph-name="uni0331" unicode="&#x331;" horiz-adv-x="0" 
d="M37 -171v73h301v-73h-301z" />
    <glyph glyph-name="uni0394" unicode="&#x394;" horiz-adv-x="600" 
 />
    <glyph glyph-name="uni03A9" unicode="&#x3a9;" horiz-adv-x="600" 
 />
    <glyph glyph-name="uni03BC" unicode="&#x3bc;" horiz-adv-x="600" 
 />
    <glyph glyph-name="pi" unicode="&#x3c0;" horiz-adv-x="600" 
 />
    <glyph glyph-name="uni1E04" unicode="&#x1e04;" horiz-adv-x="594" 
d="M271 700q55 0 103.5 -1.5t84.5 -17t57 -52t21 -106.5q0 -41 -6 -68.5t-17.5 -46t-27 -30t-34.5 -21.5q24 -8 43.5 -19.5t33.5 -31.5t21.5 -51t7.5 -76q0 -68 -21 -104.5t-57.5 -53t-85.5 -19t-104 -2.5h-231v700h212zM200 396h108q21 0 38.5 3.5t30 14t19.5 30t7 53.5
q0 37 -8 57.5t-23 30t-36 11t-46 1.5h-88zM199 102h105q24 0 44 2.5t34 13t22 31t8 57.5t-8 58t-22 31.5t-34 12.5t-44 2h-104zM231 -167v80h93v-80h-93z" />
    <glyph glyph-name="uni1E05" unicode="&#x1e05;" horiz-adv-x="562" 
d="M191 511q25 14 57 26t68 13q74 2 116 -17t62.5 -55.5t25.5 -89.5t5 -118q0 -64 -4.5 -116t-24.5 -88.5t-60 -56t-110 -19.5q-48 0 -85 16t-68 37l-13 -43h-109v750h139zM190 116q22 -13 46 -23.5t48 -10.5q36 0 56 10.5t30.5 33.5t13 58.5t2.5 86.5t-2.5 86.5t-13 58.5
t-30.5 33.5t-56 10.5q-23 0 -47.5 -10.5t-45.5 -21.5zM230 -166v80h93v-80h-93z" />
    <glyph glyph-name="uni1E0C" unicode="&#x1e0c;" horiz-adv-x="598" 
d="M294 700q93 0 145.5 -23t77.5 -63.5t30.5 -96t5.5 -119.5v-48v-48q0 -65 -5.5 -120t-30.5 -95.5t-77.5 -63.5t-145.5 -23h-235v700h235zM199 102h94q43 0 67 11.5t36 36t14.5 62t2.5 90.5v48v48q0 52 -2.5 90t-14 62.5t-35.5 36t-67 11.5h-94zM231 -167v80h93v-80h-93z
" />
    <glyph glyph-name="uni1E0D" unicode="&#x1e0d;" horiz-adv-x="568" 
d="M409 -1l-13 42q-29 -20 -64 -35.5t-79 -16.5q-74 -2 -116 17.5t-62.5 56t-25.5 89t-5 117.5t5 118t25.5 89.5t62.5 55.5t116 17q36 -1 68 -13t57 -26v240h139v-750zM378 425q-21 11 -45.5 21.5t-47.5 10.5q-36 0 -56 -10.5t-30.5 -33.5t-13 -58.5t-2.5 -86.5t2.5 -86.5
t13 -58.5t30.5 -33.5t56 -10.5q24 0 48 10.5t46 23.5zM249 -169v80h93v-80h-93z" />
    <glyph glyph-name="uni1E0E" unicode="&#x1e0e;" horiz-adv-x="598" 
d="M294 700q93 0 145.5 -23t77.5 -63.5t30.5 -96t5.5 -119.5v-48v-48q0 -65 -5.5 -120t-30.5 -95.5t-77.5 -63.5t-145.5 -23h-235v700h235zM199 102h94q43 0 67 11.5t36 36t14.5 62t2.5 90.5v48v48q0 52 -2.5 90t-14 62.5t-35.5 36t-67 11.5h-94zM121 -171v73h301v-73h-301z
" />
    <glyph glyph-name="uni1E0F" unicode="&#x1e0f;" horiz-adv-x="568" 
d="M409 -1l-13 42q-29 -20 -64 -35.5t-79 -16.5q-74 -2 -116 17.5t-62.5 56t-25.5 89t-5 117.5t5 118t25.5 89.5t62.5 55.5t116 17q36 -1 68 -13t57 -26v240h139v-750zM378 425q-21 11 -45.5 21.5t-47.5 10.5q-36 0 -56 -10.5t-30.5 -33.5t-13 -58.5t-2.5 -86.5t2.5 -86.5
t13 -58.5t30.5 -33.5t56 -10.5q24 0 48 10.5t46 23.5zM139 -173v73h301v-73h-301z" />
    <glyph glyph-name="uni1E12" unicode="&#x1e12;" horiz-adv-x="598" 
d="M294 700q93 0 145.5 -23t77.5 -63.5t30.5 -96t5.5 -119.5v-48v-48q0 -65 -5.5 -120t-30.5 -95.5t-77.5 -63.5t-145.5 -23h-235v700h235zM199 102h94q43 0 67 11.5t36 36t14.5 62t2.5 90.5v48v48q0 52 -2.5 90t-14 62.5t-35.5 36t-67 11.5h-94zM335 -193l-58 79l-58 -79
h-79l77 134h120l77 -134h-79z" />
    <glyph glyph-name="uni1E13" unicode="&#x1e13;" horiz-adv-x="568" 
d="M409 -1l-13 42q-29 -20 -64 -35.5t-79 -16.5q-74 -2 -116 17.5t-62.5 56t-25.5 89t-5 117.5t5 118t25.5 89.5t62.5 55.5t116 17q36 -1 68 -13t57 -26v240h139v-750zM378 425q-21 11 -45.5 21.5t-47.5 10.5q-36 0 -56 -10.5t-30.5 -33.5t-13 -58.5t-2.5 -86.5t2.5 -86.5
t13 -58.5t30.5 -33.5t56 -10.5q24 0 48 10.5t46 23.5zM353 -195l-58 79l-58 -79h-79l77 134h120l77 -134h-79z" />
    <glyph glyph-name="uni1E24" unicode="&#x1e24;" horiz-adv-x="621" 
d="M416 0v304h-212v-304h-145v700h145v-294h212v294h145v-700h-145zM264 -167v80h93v-80h-93z" />
    <glyph glyph-name="uni1E25" unicode="&#x1e25;" horiz-adv-x="576" 
d="M195 511q25 14 57 26t68 14h27q64 0 100.5 -17t54.5 -48t22.5 -75t4.5 -98v-313h-139v304q0 45 -2.5 74.5t-13 47.5t-30.5 25.5t-56 7.5q-23 0 -47.5 -10.5t-45.5 -21.5v-427h-139v750h139v-239zM260 -166v80h93v-80h-93z" />
    <glyph glyph-name="uni1E2E" unicode="&#x1e2e;" horiz-adv-x="263" 
d="M64 866l48 127h101l-71 -127h-78zM-3 744v81h94v-81h-94zM173 744v81h93v-81h-93zM59 -1v700h145v-700h-145z" />
    <glyph glyph-name="uni1E2F" unicode="&#x1e2f;" horiz-adv-x="244" 
d="M56 726l48 127h101l-71 -127h-78zM-10 604v81h93v-81h-93zM166 604v81h93v-81h-93zM57 0v540h139v-540h-139z" />
    <glyph glyph-name="uni1E36" unicode="&#x1e36;" horiz-adv-x="434" 
d="M410 102v-102h-351v700h145v-598h206zM162 -167v80h93v-80h-93z" />
    <glyph glyph-name="uni1E37" unicode="&#x1e37;" horiz-adv-x="244" 
d="M59 0v750h139v-750h-139zM78 -167v80h93v-80h-93z" />
    <glyph glyph-name="uni1E3C" unicode="&#x1e3c;" horiz-adv-x="434" 
d="M410 102v-102h-351v700h145v-598h206zM266 -193l-58 79l-58 -79h-79l77 134h120l77 -134h-79z" />
    <glyph glyph-name="uni1E3D" unicode="&#x1e3d;" horiz-adv-x="244" 
d="M59 0v750h139v-750h-139zM182 -193l-58 79l-58 -79h-79l77 134h120l77 -134h-79z" />
    <glyph glyph-name="uni1E3E" unicode="&#x1e3e;" horiz-adv-x="796" 
d="M327 749l48 127h101l-71 -127h-78zM608 0v558h-6l-170 -558h-70l-170 558h-7v-558h-130v700h200l141 -468l141 468h200v-700h-129z" />
    <glyph glyph-name="uni1E3F" unicode="&#x1e3f;" horiz-adv-x="854" 
d="M364 589l48 127h101l-71 -127h-78zM172 500q27 17 60.5 33t75.5 18q65 3 101 -11t54 -43q28 18 63 35t78 19h26q62 0 97.5 -17t53 -48t21.5 -75t4 -98v-313h-139v304q0 45 -2.5 74.5t-11.5 47.5t-28 25.5t-52 7.5q-22 0 -45 -10.5t-44 -23.5q5 -26 6.5 -56.5t1.5 -64.5
v-304h-121v304q0 45 -2.5 74.5t-11.5 47.5t-28 25.5t-52 7.5q-22 0 -44.5 -10.5t-42.5 -21.5v-427h-139v540h109z" />
    <glyph glyph-name="uni1E44" unicode="&#x1e44;" horiz-adv-x="619" 
d="M267 764v81h93v-81h-93zM413 0l-220 494h-6v-494h-132v700h161l211 -481h6v481h132v-700h-152z" />
    <glyph glyph-name="uni1E45" unicode="&#x1e45;" horiz-adv-x="571" 
d="M250 608v81h93v-81h-93zM173 501q29 17 64.5 32.5t78.5 17.5h27q64 0 100.5 -17t54.5 -48t22.5 -75t4.5 -98v-313h-139v304q0 45 -2.5 74.5t-13 47.5t-30.5 25.5t-56 7.5q-23 0 -47.5 -10.5t-45.5 -21.5v-427h-139v540h109z" />
    <glyph glyph-name="uni1E46" unicode="&#x1e46;" horiz-adv-x="619" 
d="M413 0l-220 494h-6v-494h-132v700h161l211 -481h6v481h132v-700h-152zM268 -167v80h93v-80h-93z" />
    <glyph glyph-name="uni1E47" unicode="&#x1e47;" horiz-adv-x="571" 
d="M172 501q29 17 64.5 32.5t78.5 17.5h27q64 0 100.5 -17t54.5 -48t22.5 -75t4.5 -98v-313h-139v304q0 45 -2.5 74.5t-13 47.5t-30.5 25.5t-56 7.5q-23 0 -47.5 -10.5t-45.5 -21.5v-427h-139v540h109zM249 -165v80h93v-80h-93z" />
    <glyph glyph-name="uni1E4A" unicode="&#x1e4a;" horiz-adv-x="619" 
d="M193 494h-6v-494h-132v700h161l211 -481h6v481h132v-700h-152zM372 -193l-58 79l-58 -79h-79l77 134h120l77 -134h-79z" />
    <glyph glyph-name="uni1E4B" unicode="&#x1e4b;" horiz-adv-x="571" 
d="M172 501q29 17 64.5 32.5t78.5 17.5h27q64 0 100.5 -17t54.5 -48t22.5 -75t4.5 -98v-313h-139v304q0 45 -2.5 74.5t-13 47.5t-30.5 25.5t-56 7.5q-23 0 -47.5 -10.5t-45.5 -21.5v-427h-139v540h109zM353 -191l-58 79l-58 -79h-79l77 134h120l77 -134h-79z" />
    <glyph glyph-name="uni1E4C" unicode="&#x1e4c;" horiz-adv-x="609" 
d="M236 876l48 127h101l-71 -127h-78zM471 850q0 -48 -16 -76.5t-42 -38.5q-15 -6 -31 -6q-32 0 -68 18l-40 24q-25 14 -42 14q-8 0 -14 -3q-9 -4 -14.5 -14t-5.5 -31h-59q0 65 23 91.5t61 26.5q31 0 68 -19l40 -23q26 -13 42 -13q8 0 16 3q23 11 23 48zM305 707
q93 0 145 -27t77.5 -71t31 -100t5.5 -115v-45v-45q0 -59 -5.5 -115t-31 -100t-77.5 -71t-145 -27t-145 27t-77.5 71t-31 100t-5.5 115v45v45q0 59 5.5 115t31 100t77.5 71t145 27zM305 605q-41 0 -63.5 -13t-33.5 -39t-13.5 -66t-2.5 -94v-44v-44q0 -54 2.5 -94t13.5 -66
t33.5 -39t63.5 -13q40 0 63 13t34 39t13.5 66t2.5 94v44v44q0 54 -2.5 94t-13.5 66t-34 39t-63 13z" />
    <glyph glyph-name="uni1E4D" unicode="&#x1e4d;" horiz-adv-x="567" 
d="M215 732l48 127h101l-71 -127h-78zM450 703q0 -48 -16 -76.5t-42 -38.5q-15 -6 -31 -6q-32 0 -68 18l-40 24q-25 14 -42 14q-8 0 -14 -3q-9 -4 -14.5 -14t-5.5 -31h-59q0 65 23 91.5t61 26.5q31 0 68 -19l40 -23q26 -13 42 -13q8 0 16 3q23 11 23 48zM284 548
q87 0 136.5 -23t74 -61.5t30 -89t5.5 -104.5t-5.5 -104.5t-30 -89t-74 -61.5t-136.5 -23t-136.5 23t-74 61.5t-30 89t-5.5 104.5t5.5 104.5t30 89t74 61.5t136.5 23zM283 459q-38 0 -59.5 -10.5t-32 -33.5t-13 -59t-2.5 -87t2.5 -87t13 -58.5t32 -33t59.5 -10.5t60 10.5
t32.5 33t13 58.5t2.5 87t-2.5 87t-13 59t-32 33.5t-59.5 10.5h-1z" />
    <glyph glyph-name="uni1E50" unicode="&#x1e50;" horiz-adv-x="609" 
d="M304 876l-71 127h101l48 -127h-78zM154 763v73h301v-73h-301zM305 709q93 0 145 -27t77.5 -71t31 -100t5.5 -115v-45v-45q0 -59 -5.5 -115t-31 -100t-77.5 -71t-145 -27t-145 27t-77.5 71t-31 100t-5.5 115v45v45q0 59 5.5 115t31 100t77.5 71t145 27zM305 607
q-41 0 -63.5 -13t-33.5 -39t-13.5 -66t-2.5 -94v-44v-44q0 -54 2.5 -94t13.5 -66t33.5 -39t63.5 -13q40 0 63 13t34 39t13.5 66t2.5 94v44v44q0 54 -2.5 94t-13.5 66t-34 39t-63 13z" />
    <glyph glyph-name="uni1E51" unicode="&#x1e51;" horiz-adv-x="567" 
d="M283 732l-71 127h101l48 -127h-78zM133 611v73h301v-73h-301zM285 548q87 0 136.5 -23t74 -61.5t30 -89t5.5 -104.5t-5.5 -104.5t-30 -89t-74 -61.5t-136.5 -23t-136.5 23t-74 61.5t-30 89t-5.5 104.5t5.5 104.5t30 89t74 61.5t136.5 23zM284 459q-38 0 -59.5 -10.5
t-32 -33.5t-13 -59t-2.5 -87t2.5 -87t13 -58.5t32 -33t59.5 -10.5t60 10.5t32.5 33t13 58.5t2.5 87t-2.5 87t-13 59t-32 33.5t-59.5 10.5h-1z" />
    <glyph glyph-name="uni1E52" unicode="&#x1e52;" horiz-adv-x="609" 
d="M236 876l48 127h101l-71 -127h-78zM154 763v73h301v-73h-301zM305 709q93 0 145 -27t77.5 -71t31 -100t5.5 -115v-45v-45q0 -59 -5.5 -115t-31 -100t-77.5 -71t-145 -27t-145 27t-77.5 71t-31 100t-5.5 115v45v45q0 59 5.5 115t31 100t77.5 71t145 27zM305 607
q-41 0 -63.5 -13t-33.5 -39t-13.5 -66t-2.5 -94v-44v-44q0 -54 2.5 -94t13.5 -66t33.5 -39t63.5 -13q40 0 63 13t34 39t13.5 66t2.5 94v44v44q0 54 -2.5 94t-13.5 66t-34 39t-63 13z" />
    <glyph glyph-name="uni1E53" unicode="&#x1e53;" horiz-adv-x="567" 
d="M215 732l48 127h101l-71 -127h-78zM133 611v73h301v-73h-301zM285 548q87 0 136.5 -23t74 -61.5t30 -89t5.5 -104.5t-5.5 -104.5t-30 -89t-74 -61.5t-136.5 -23t-136.5 23t-74 61.5t-30 89t-5.5 104.5t5.5 104.5t30 89t74 61.5t136.5 23zM284 459q-38 0 -59.5 -10.5
t-32 -33.5t-13 -59t-2.5 -87t2.5 -87t13 -58.5t32 -33t59.5 -10.5t60 10.5t32.5 33t13 58.5t2.5 87t-2.5 87t-13 59t-32 33.5t-59.5 10.5h-1z" />
    <glyph glyph-name="uni1E62" unicode="&#x1e62;" horiz-adv-x="563" 
d="M170 196q3 -54 27 -78.5t81 -24.5q60 0 84.5 26t24.5 78q0 29 -6 47.5t-19.5 30t-34 17.5t-48.5 9q-67 9 -113.5 21t-75.5 33t-42 55.5t-13 90.5q0 49 11 87t38 64.5t73 40.5t116 14q71 0 117 -14.5t73 -42t37.5 -67t10.5 -89.5h-130q-1 29 -6 50t-16.5 35t-31 20.5
t-49.5 6.5q-59 0 -80 -26.5t-21 -81.5q0 -26 5.5 -42.5t17.5 -26t32.5 -15t50.5 -8.5q63 -9 110 -21t78 -34.5t46.5 -59t15.5 -93.5q0 -46 -13 -84t-42.5 -65t-77.5 -42t-119 -15q-132 0 -191 50t-61 155zM233 -168v80h93v-80h-93z" />
    <glyph glyph-name="uni1E63" unicode="&#x1e63;" horiz-adv-x="539" 
d="M161 171q1 -50 24 -71t78 -21q53 0 76 18.5t23 55.5q0 42 -20.5 61t-74.5 24q-64 7 -108 15.5t-71.5 24.5t-39.5 41.5t-12 65.5q0 38 9.5 68.5t34 51.5t68.5 32.5t113 11.5q71 0 115.5 -11t69.5 -33.5t34.5 -57t9.5 -81.5h-132q0 50 -20.5 72.5t-76.5 22.5
q-52 0 -72.5 -18.5t-20.5 -57.5q0 -18 5 -30t16.5 -20.5t31 -13t48.5 -7.5q61 -8 105 -18t73 -28t43 -45.5t14 -70.5q0 -35 -11.5 -64.5t-39 -51.5t-73 -34t-112.5 -12q-66 0 -110.5 10.5t-72.5 32.5t-40 56t-13 82h129zM223 -174v81h93v-81h-93z" />
    <glyph glyph-name="uni1E6C" unicode="&#x1e6c;" horiz-adv-x="497" 
d="M321 598v-598h-145v598h-152v102h449v-102h-152zM204 -167v80h93v-80h-93z" />
    <glyph glyph-name="uni1E6D" unicode="&#x1e6d;" horiz-adv-x="363" 
d="M323 540v-94h-109v-287q0 -33 12 -49.5t41 -18.5q5 -1 16 -1q9 0 19.5 0.5t22.5 1.5l8 -92q-29 -4 -56.5 -7.5t-52.5 -3.5q-35 0 -62.5 8.5t-47 28t-29.5 52.5t-10 81v287h-58v94h58v128h139v-128h109zM152 -167v80h93v-80h-93z" />
    <glyph glyph-name="uni1E6E" unicode="&#x1e6e;" horiz-adv-x="497" 
d="M321 598v-598h-145v598h-152v102h449v-102h-152zM94 -171v73h301v-73h-301z" />
    <glyph glyph-name="uni1E6F" unicode="&#x1e6f;" horiz-adv-x="363" 
d="M323 540v-94h-109v-287q0 -33 12 -49.5t41 -18.5q5 -1 16 -1q9 0 19.5 0.5t22.5 1.5l8 -92q-29 -4 -56.5 -7.5t-52.5 -3.5q-35 0 -62.5 8.5t-47 28t-29.5 52.5t-10 81v287h-58v94h58v128h139v-128h109zM42 -171v73h301v-73h-301z" />
    <glyph glyph-name="uni1E70" unicode="&#x1e70;" horiz-adv-x="497" 
d="M321 598v-598h-145v598h-152v102h449v-102h-152zM308 -193l-58 79l-58 -79h-79l77 134h120l77 -134h-79z" />
    <glyph glyph-name="uni1E71" unicode="&#x1e71;" horiz-adv-x="363" 
d="M323 540v-94h-109v-287q0 -33 12 -49.5t41 -18.5q5 -1 16 -1q9 0 19.5 0.5t22.5 1.5l8 -92q-29 -4 -56.5 -7.5t-52.5 -3.5q-35 0 -62.5 8.5t-47 28t-29.5 52.5t-10 81v287h-58v94h58v128h139v-128h109zM255 -193l-58 79l-58 -79h-79l77 134h120l77 -134h-79z" />
    <glyph glyph-name="Wgrave" unicode="&#x1e80;" horiz-adv-x="915" 
d="M457 749l-71 127h101l48 -127h-78zM557 0l-100 449l-101 -449h-192l-136 700h147l91 -590h14l115 590h125l115 -590h14l91 590h147l-136 -700h-194z" />
    <glyph glyph-name="wgrave" unicode="&#x1e81;" horiz-adv-x="813" 
d="M406 589l-71 127h101l48 -127h-78zM484 0l-76 363l-77 -363h-186l-129 540h140l81 -446h18l87 446h130l87 -446h18l81 446h140l-129 -540h-185z" />
    <glyph glyph-name="Wacute" unicode="&#x1e82;" horiz-adv-x="915" 
d="M389 749l48 127h101l-71 -127h-78zM557 0l-100 449l-101 -449h-192l-136 700h147l91 -590h14l115 590h125l115 -590h14l91 590h147l-136 -700h-194z" />
    <glyph glyph-name="wacute" unicode="&#x1e83;" horiz-adv-x="813" 
d="M338 589l48 127h101l-71 -127h-78zM484 0l-76 363l-77 -363h-186l-129 540h140l81 -446h18l87 446h130l87 -446h18l81 446h140l-129 -540h-185z" />
    <glyph glyph-name="Wdieresis" unicode="&#x1e84;" horiz-adv-x="915" 
d="M322 764v81h94v-81h-94zM498 764v81h93v-81h-93zM556 0l-100 449l-101 -449h-192l-136 700h147l91 -590h14l115 590h125l115 -590h14l91 590h147l-136 -700h-194z" />
    <glyph glyph-name="wdieresis" unicode="&#x1e85;" horiz-adv-x="813" 
d="M271 604v81h94v-81h-94zM447 604v81h93v-81h-93zM484 0l-76 363l-77 -363h-186l-129 540h140l81 -446h18l87 446h130l87 -446h18l81 446h140l-129 -540h-185z" />
    <glyph glyph-name="uni1E92" unicode="&#x1e92;" horiz-adv-x="510" 
d="M186 102h294v-102h-451v92l284 506h-269v102h427v-90zM208 -167v80h93v-80h-93z" />
    <glyph glyph-name="uni1E93" unicode="&#x1e93;" horiz-adv-x="507" 
d="M187 94h287v-94h-449v84l278 362h-263v94h426v-84zM206 -167v80h93v-80h-93z" />
    <glyph glyph-name="uni1EA1" unicode="&#x1ea1;" horiz-adv-x="561" 
d="M62 360q0 40 9.5 74.5t34 59.5t68 39.5t111.5 14.5q84 0 130 -17t68.5 -49.5t27 -78t4.5 -102.5v-32v-270h-109l-13 43q-35 -25 -76 -38.5t-77 -14.5q-55 -1 -94 3t-63.5 20t-36 46t-11.5 80q0 35 8.5 64.5t29.5 51t57.5 35t93.5 16.5l153 8q0 41 -2.5 69t-12 45
t-28.5 24.5t-52 7.5q-55 0 -74 -23.5t-19 -74.5zM263 241q-55 -3 -73 -24.5t-19 -59.5q0 -27 5 -42.5t16.5 -24t30 -10.5t46.5 -2q29 0 56.5 14t49.5 28v127zM234 -167v80h93v-80h-93z" />
    <glyph glyph-name="uni1EAC" unicode="&#x1eac;" horiz-adv-x="598" 
d="M357 741l-58 79l-58 -79h-79l77 135h120l77 -135h-79zM430 0l-34 160h-197l-34 -160h-145l165 700h227l165 -700h-147zM211 262h170l-74 336h-21zM251 -167v80h93v-80h-93z" />
    <glyph glyph-name="uni1EAD" unicode="&#x1ead;" horiz-adv-x="561" 
d="M343 586l-58 79l-58 -79h-79l77 135h120l77 -135h-79zM62 359q0 40 9.5 74.5t34 59.5t68 39.5t111.5 14.5q84 0 130 -17t68.5 -49.5t27 -78t4.5 -102.5v-32v-270h-109l-13 43q-35 -25 -76 -38.5t-77 -14.5q-55 -1 -94 3t-63.5 20t-36 46t-11.5 80q0 35 8.5 64.5t29.5 51
t57.5 35t93.5 16.5l153 8q0 41 -2.5 69t-12 45t-28.5 24.5t-52 7.5q-55 0 -74 -23.5t-19 -74.5zM263 240q-55 -3 -73 -24.5t-19 -59.5q0 -27 5 -42.5t16.5 -24t30 -10.5t46.5 -2q29 0 56.5 14t49.5 28v127zM234 -168v80h93v-80h-93z" />
    <glyph glyph-name="uni1EB8" unicode="&#x1eb8;" horiz-adv-x="495" 
d="M204 597v-192h230v-102h-230v-201h262v-102h-407v700h407v-102zM205 -168v80h93v-80h-93z" />
    <glyph glyph-name="uni1EB9" unicode="&#x1eb9;" horiz-adv-x="555" 
d="M507 15q-54 -8 -108.5 -15t-120.5 -7q-64 0 -109.5 14.5t-74.5 47t-42.5 85.5t-13.5 131q0 54 5.5 104.5t30 89t74 61.5t136.5 23q88 0 136.5 -23t70.5 -62t26 -89.5t4 -104.5v-42h-345q0 -35 3.5 -60t15 -42t32.5 -25t57 -8q24 0 52 0.5t56.5 1.5t54.5 2.5t47 2.5z
M383 313q0 38 -3 66t-12.5 46t-29.5 27t-55 9q-37 0 -58 -9t-32 -27.5t-14.5 -46.5t-3.5 -66v-13h209zM227 -165v80h93v-80h-93z" />
    <glyph glyph-name="uni1EBC" unicode="&#x1ebc;" horiz-adv-x="495" 
d="M416 873q0 -48 -16 -76.5t-42 -38.5q-15 -6 -31 -6q-32 0 -68 18l-40 24q-25 14 -42 14q-8 0 -14 -3q-9 -4 -14.5 -14t-5.5 -31h-59q0 65 23 91.5t61 26.5q31 0 68 -19l40 -23q26 -13 42 -13q8 0 16 3q23 11 23 48zM204 596v-192h230v-102h-230v-201h262v-102h-407v700
h407v-102z" />
    <glyph glyph-name="uni1EBD" unicode="&#x1ebd;" horiz-adv-x="555" 
d="M440 713q0 -48 -16 -76.5t-42 -38.5q-15 -6 -31 -6q-32 0 -68 18l-40 24q-25 14 -42 14q-8 0 -14 -3q-9 -4 -14.5 -14t-5.5 -31h-59q0 65 23 91.5t61 26.5q31 0 68 -19l40 -23q26 -13 42 -13q8 0 16 3q23 11 23 48zM507 14q-54 -8 -108.5 -15t-120.5 -7
q-64 0 -109.5 14.5t-74.5 47t-42.5 85.5t-13.5 131q0 54 5.5 104.5t30 89t74 61.5t136.5 23q88 0 136.5 -23t70.5 -62t26 -89.5t4 -104.5v-42h-345q0 -35 3.5 -60t15 -42t32.5 -25t57 -8q24 0 52 0.5t56.5 1.5t54.5 2.5t47 2.5zM383 312q0 38 -3 66t-12.5 46t-29.5 27t-55 9
q-37 0 -58 -9t-32 -27.5t-14.5 -46.5t-3.5 -66v-13h209z" />
    <glyph glyph-name="uni1EC6" unicode="&#x1ec6;" horiz-adv-x="495" 
d="M308 741l-58 79l-58 -79h-79l77 135h120l77 -135h-79zM204 597v-192h230v-102h-230v-201h262v-102h-407v700h407v-102zM205 -168v80h93v-80h-93z" />
    <glyph glyph-name="uni1EC7" unicode="&#x1ec7;" horiz-adv-x="555" 
d="M332 581l-58 79l-58 -79h-79l77 135h120l77 -135h-79zM507 15q-54 -8 -108.5 -15t-120.5 -7q-64 0 -109.5 14.5t-74.5 47t-42.5 85.5t-13.5 131q0 54 5.5 104.5t30 89t74 61.5t136.5 23q88 0 136.5 -23t70.5 -62t26 -89.5t4 -104.5v-42h-345q0 -35 3.5 -60t15 -42
t32.5 -25t57 -8q24 0 52 0.5t56.5 1.5t54.5 2.5t47 2.5zM383 313q0 38 -3 66t-12.5 46t-29.5 27t-55 9q-37 0 -58 -9t-32 -27.5t-14.5 -46.5t-3.5 -66v-13h209zM227 -165v80h93v-80h-93z" />
    <glyph glyph-name="uni1ECA" unicode="&#x1eca;" horiz-adv-x="263" 
d="M59 0v700h145v-700h-145zM85 -167v80h93v-80h-93z" />
    <glyph glyph-name="uni1ECB" unicode="&#x1ecb;" horiz-adv-x="247" 
d="M56 594v106h142v-106h-142zM57 0v540h139v-540h-139zM80 -167v80h93v-80h-93z" />
    <glyph glyph-name="uni1ECC" unicode="&#x1ecc;" horiz-adv-x="609" 
d="M304 709q93 0 145 -27t77.5 -71t31 -100t5.5 -115v-45v-45q0 -59 -5.5 -115t-31 -100t-77.5 -71t-145 -27t-145 27t-77.5 71t-31 100t-5.5 115v45v45q0 59 5.5 115t31 100t77.5 71t145 27zM304 607q-41 0 -63.5 -13t-33.5 -39t-13.5 -66t-2.5 -94v-44v-44q0 -54 2.5 -94
t13.5 -66t33.5 -39t63.5 -13q40 0 63 13t34 39t13.5 66t2.5 94v44v44q0 54 -2.5 94t-13.5 66t-34 39t-63 13zM259 -167v80h93v-80h-93z" />
    <glyph glyph-name="uni1ECD" unicode="&#x1ecd;" horiz-adv-x="567" 
d="M284 548q87 0 136.5 -23t74 -61.5t30 -89t5.5 -104.5t-5.5 -104.5t-30 -89t-74 -61.5t-136.5 -23t-136.5 23t-74 61.5t-30 89t-5.5 104.5t5.5 104.5t30 89t74 61.5t136.5 23zM283 459q-38 0 -59.5 -10.5t-32 -33.5t-13 -59t-2.5 -87t2.5 -87t13 -58.5t32 -33t59.5 -10.5
t60 10.5t32.5 33t13 58.5t2.5 87t-2.5 87t-13 59t-32 33.5t-59.5 10.5h-1zM237 -167v80h93v-80h-93z" />
    <glyph glyph-name="uni1ED8" unicode="&#x1ed8;" horiz-adv-x="609" 
d="M362 741l-58 79l-58 -79h-79l77 135h120l77 -135h-79zM304 709q93 0 145 -27t77.5 -71t31 -100t5.5 -115v-45v-45q0 -59 -5.5 -115t-31 -100t-77.5 -71t-145 -27t-145 27t-77.5 71t-31 100t-5.5 115v45v45q0 59 5.5 115t31 100t77.5 71t145 27zM304 607q-41 0 -63.5 -13
t-33.5 -39t-13.5 -66t-2.5 -94v-44v-44q0 -54 2.5 -94t13.5 -66t33.5 -39t63.5 -13q40 0 63 13t34 39t13.5 66t2.5 94v44v44q0 54 -2.5 94t-13.5 66t-34 39t-63 13zM259 -167v80h93v-80h-93z" />
    <glyph glyph-name="uni1ED9" unicode="&#x1ed9;" horiz-adv-x="567" 
d="M341 581l-58 79l-58 -79h-79l77 135h120l77 -135h-79zM283 548q87 0 136.5 -23t74 -61.5t30 -89t5.5 -104.5t-5.5 -104.5t-30 -89t-74 -61.5t-136.5 -23t-136.5 23t-74 61.5t-30 89t-5.5 104.5t5.5 104.5t30 89t74 61.5t136.5 23zM282 459q-38 0 -59.5 -10.5t-32 -33.5
t-13 -59t-2.5 -87t2.5 -87t13 -58.5t32 -33t59.5 -10.5t60 10.5t32.5 33t13 58.5t2.5 87t-2.5 87t-13 59t-32 33.5t-59.5 10.5h-1zM236 -167v80h93v-80h-93z" />
    <glyph glyph-name="uni1EE4" unicode="&#x1ee4;" horiz-adv-x="611" 
d="M552 330q0 -20 0.5 -40t0.5 -40q0 -52 -6.5 -99t-31.5 -82.5t-74.5 -56.5t-135.5 -21t-135.5 21t-74.5 56.5t-31.5 82.5t-6.5 99q0 20 0.5 40t0.5 40v369h145v-369v-85q0 -42 3 -71.5t13.5 -47.5t31 -26.5t56.5 -8.5t56.5 8.5t31 26.5t13.5 47.5t3 71.5v85v369h145z
M258 -168v80h93v-80h-93z" />
    <glyph glyph-name="uni1EE5" unicode="&#x1ee5;" 
d="M411 0l-13 41q-29 -17 -64.5 -33t-78.5 -18q-74 -3 -115.5 12t-62 46.5t-25.5 76.5t-5 102v313h139v-313q0 -41 2.5 -69t13 -45t30.5 -24.5t56 -7.5q23 0 47.5 10.5t45.5 21.5v427h139v-540h-109zM238 -167v80h93v-80h-93z" />
    <glyph glyph-name="Ygrave" unicode="&#x1ef2;" horiz-adv-x="554" 
d="M276 749l-71 127h101l48 -127h-78zM350 0h-145v237l-184 463h149l107 -319l107 319h149l-182 -457z" />
    <glyph glyph-name="ygrave" unicode="&#x1ef3;" horiz-adv-x="547" 
d="M269 601l-71 127h101l48 -127h-78zM370 22q-25 -78 -55 -122t-74 -65q-29 -15 -65.5 -20.5t-83.5 -5.5h-22t-22 1l8 91q11 -1 21.5 -1.5t20.5 -0.5q23 0 41.5 2.5t34.5 9.5q23 10 41 30.5t37 58.5h-65l-174 540h149l104 -446h16l106 446h147z" />
    <glyph glyph-name="endash" unicode="&#x2013;" horiz-adv-x="456" 
d="M37 234v115h382v-115h-382z" />
    <glyph glyph-name="emdash" unicode="&#x2014;" horiz-adv-x="531" 
d="M37 234v115h456v-115h-456z" />
    <glyph glyph-name="quoteleft" unicode="&#x2018;" horiz-adv-x="188" 
d="M37 525v220h95l18 -220h-113z" />
    <glyph glyph-name="quoteright" unicode="&#x2019;" horiz-adv-x="187" 
d="M55 525l-18 220h113v-220h-95z" />
    <glyph glyph-name="quotesinglbase" unicode="&#x201a;" horiz-adv-x="188" 
d="M55 -113l-18 220h113v-220h-95z" />
    <glyph glyph-name="quotedblleft" unicode="&#x201c;" horiz-adv-x="346" 
d="M38 525v220h94l18 -220h-112zM197 525v220h94l18 -220h-112z" />
    <glyph glyph-name="quotedblright" unicode="&#x201d;" horiz-adv-x="346" 
d="M55 525l-18 220h113v-220h-95zM213 525l-18 220h113v-220h-95z" />
    <glyph glyph-name="quotedblbase" unicode="&#x201e;" horiz-adv-x="346" 
d="M55 -113l-18 220h113v-220h-95zM213 -113l-18 220h113v-220h-95z" />
    <glyph glyph-name="dagger" unicode="&#x2020;" horiz-adv-x="490" 
d="M453 517v-94h-138v-543h-140v543h-138v94h138v200h140v-200h138z" />
    <glyph glyph-name="daggerdbl" unicode="&#x2021;" horiz-adv-x="490" 
d="M453 517v-94h-138v-250h138v-94h-138v-200h-140v200h-137v94h137v250h-137v94h137v200h140v-200h138z" />
    <glyph glyph-name="bullet" unicode="&#x2022;" horiz-adv-x="361" 
d="M180 442q51 0 79.5 -11.5t42.5 -32.5t17.5 -50t3.5 -64t-3.5 -64t-17.5 -50t-42.5 -32.5t-79.5 -11.5t-79.5 11.5t-42.5 32.5t-17.5 50t-3.5 64t3.5 64t17.5 50t42.5 32.5t79.5 11.5z" />
    <glyph glyph-name="ellipsis" unicode="&#x2026;" horiz-adv-x="712" 
d="M38 0v140h140v-140h-140zM287 0v140h140v-140h-140zM536 0v140h140v-140h-140z" />
    <glyph glyph-name="perthousand" unicode="&#x2030;" horiz-adv-x="1197" 
d="M108 -17l491 734h124l-491 -734h-124zM198 713q57 0 89.5 -15t48 -39.5t19.5 -56.5t4 -66t-4 -66t-19.5 -56.5t-48 -39.5t-89.5 -15t-89 15t-47.5 39.5t-19.5 56.5t-4 66t4 66t19.5 56.5t47.5 39.5t89 15zM198 649q-22 0 -34.5 -6t-19 -19t-8 -35t-1.5 -53t1.5 -52.5
t8 -35t19 -19.5t33.5 -6t33.5 6t19 19.5t8 35t1.5 52.5t-1.5 52.5t-7.5 35t-18 19.5t-33 6h-1zM634 344q57 0 89.5 -15t48 -39.5t19.5 -56.5t4 -66t-4 -66t-19.5 -56.5t-48 -39.5t-89.5 -15t-89.5 15t-48 39.5t-19.5 56.5t-4 66t4 66t19.5 56.5t48 39.5t89.5 15zM998 344
q57 0 89.5 -15t48 -39.5t19.5 -56.5t4 -66t-4 -66t-19.5 -56.5t-48 -39.5t-89.5 -15t-89.5 15t-48 39.5t-19.5 56.5t-4 66t4 66t19.5 56.5t48 39.5t89.5 15zM634 279q-21 0 -33.5 -6t-19 -19.5t-8 -35t-1.5 -52.5t1.5 -52.5t8 -35t19 -19.5t33.5 -6t33.5 6t19 19.5t8 35
t1.5 52.5t-1.5 53t-8 35.5t-19 19.5t-33.5 6v-1zM998 278q-21 0 -33.5 -6t-19 -19.5t-8 -35t-1.5 -52.5t1.5 -52.5t8 -35t19 -19.5t33.5 -6t33.5 6t19 19.5t8 35t1.5 52.5t-1.5 53t-8 35.5t-19 19.5t-33.5 6v-1z" />
    <glyph glyph-name="guilsinglleft" unicode="&#x2039;" horiz-adv-x="365" 
d="M173 273l154 -214l-122 -22l-168 236l168 235l121 -22z" />
    <glyph glyph-name="guilsinglright" unicode="&#x203a;" horiz-adv-x="365" 
d="M159 35l-122 22l154 214l-153 214l121 22l168 -235z" />
    <glyph glyph-name="fraction" unicode="&#x2044;" horiz-adv-x="657" 
d="M21 -17l491 734h124l-491 -734h-124z" />
    <glyph glyph-name="Euro" unicode="&#x20ac;" horiz-adv-x="659" 
d="M126 463q2 51 12.5 95.5t38 77.5t77 52t130.5 19q70 0 116 -15.5t73 -43t37.5 -64t10.5 -78.5h-136q0 24 -5 43t-16.5 31.5t-30.5 19t-49 6.5q-36 0 -57.5 -9.5t-33 -27.5t-16 -44.5t-5.5 -60.5h226v-81h-227v-33v-32h209v-81h-208q1 -34 5.5 -60.5t16 -44.5t33 -27.5
t57.5 -9.5q30 0 49 6.5t30.5 19t16.5 31t5 42.5h136q0 -42 -10.5 -79t-37.5 -64t-73 -43t-116 -16q-81 0 -130.5 19.5t-77 52.5t-38 77.5t-12.5 95.5h-89v81h88v32v33h-88v81z" />
    <glyph glyph-name="trademark" unicode="&#x2122;" horiz-adv-x="694" 
d="M195 641v-299h-82v299h-76v59h234v-59h-76zM581 342v251h-8l-72 -251h-42l-72 251h-8v-251h-75v358h109l67 -220l67 220h109v-358h-75z" />
    <glyph glyph-name="oneeighth" unicode="&#x215b;" horiz-adv-x="816" 
d="M62 -17l491 734h124l-491 -734h-124zM116 309v312l-58 -10l-13 69l113 20h58v-391h-100zM632 397q28 0 53 -3.5t44 -14.5t30 -32t11 -56q0 -37 -12 -58t-32 -32q26 -10 41 -32.5t15 -66.5q0 -36 -12 -57.5t-33 -33t-48.5 -15t-57.5 -3.5t-57.5 3.5t-48.5 15t-33 33
t-12 57.5q0 44 15 66.5t41 32.5q-20 11 -32 32t-12 58q0 35 11 56t30 32t44.5 14t53.5 3zM632 331q-23 0 -35 -8.5t-12 -43.5q0 -17 3 -27.5t9 -15.5t14.5 -6.5t20.5 -1.5t20.5 1.5t14.5 7t9 16t3 27.5q0 35 -12 43.5t-35 8.5v-1zM632 169q-26 0 -38.5 -8.5t-12.5 -45.5
t12.5 -45.5t37.5 -8.5q13 0 22.5 1.5t16 6.5t10 16t3.5 29t-3 29t-9.5 16t-16 6.5t-22.5 1.5v2z" />
    <glyph glyph-name="threeeighths" unicode="&#x215c;" horiz-adv-x="881" 
d="M128 -17l491 734h124l-491 -734h-124zM41 601q0 35 11 56t29.5 32t43.5 14t52 3t52 -3.5t43.5 -14.5t29.5 -32t11 -56q0 -37 -12 -58t-32 -32q24 -10 38.5 -32t14.5 -65q0 -36 -11.5 -58t-31 -33t-46 -14.5t-55.5 -3.5t-55 3.5t-45.5 14.5t-31.5 32t-12 57v24h96v-13
q1 -35 13 -43t36 -8q12 0 21 1.5t15 6.5t9 16t3 29t-3 29t-9 16t-15 6.5t-21 1.5h-39v61h38q11 0 19 1.5t13.5 7t8 16t2.5 27.5q0 35 -10.5 43.5t-33.5 8.5t-34 -8.5t-11 -43.5v-12h-92zM700 397q28 0 53 -3.5t44 -14.5t30 -32t11 -56q0 -37 -12 -58t-32 -32
q26 -10 41 -32.5t15 -66.5q0 -36 -12 -57.5t-33 -33t-48.5 -15t-57.5 -3.5t-57.5 3.5t-48.5 15t-33 33t-12 57.5q0 44 15 66.5t41 32.5q-20 11 -32 32t-12 58q0 35 11 56t30 32t44.5 14t53.5 3zM700 331q-23 0 -35 -8.5t-12 -43.5q0 -17 3 -27.5t9 -15.5t14.5 -6.5
t20.5 -1.5t20.5 1.5t14.5 7t9 16t3 27.5q0 35 -12 43.5t-35 8.5v-1zM700 169q-26 0 -38.5 -8.5t-12.5 -45.5t12.5 -45.5t37.5 -8.5q13 0 22.5 1.5t16 6.5t10 16t3.5 29t-3 29t-9.5 16t-16 6.5t-22.5 1.5v2z" />
    <glyph glyph-name="fiveeighths" unicode="&#x215d;" horiz-adv-x="881" 
d="M128 -17l491 734h124l-491 -734h-124zM142 635l-7 -80q13 5 28.5 9.5t31.5 4.5q28 0 51.5 -3.5t40.5 -16t26.5 -37.5t9.5 -67q0 -38 -6.5 -64.5t-22.5 -43.5t-44 -25t-71 -8q-30 0 -56 3.5t-45.5 15.5t-31.5 34t-12 59v24h96q0 -24 3 -38t9 -21t15 -8.5t21 -1.5t21 2
t15 8t9 18t3 33q0 27 -3 43.5t-9 24.5t-14.5 10.5t-20.5 2.5q-14 0 -26.5 -5.5t-26.5 -14.5h-86l18 207h246v-66zM700 398q28 0 53 -3.5t44 -14.5t30 -32t11 -56q0 -37 -12 -58t-32 -32q26 -10 41 -32.5t15 -66.5q0 -36 -12 -57.5t-33 -33t-48.5 -15t-57.5 -3.5t-57.5 3.5
t-48.5 15t-33 33t-12 57.5q0 44 15 66.5t41 32.5q-20 11 -32 32t-12 58q0 35 11 56t30 32t44.5 14t53.5 3zM700 332q-23 0 -35 -8.5t-12 -43.5q0 -17 3 -27.5t9 -15.5t14.5 -6.5t20.5 -1.5t20.5 1.5t14.5 7t9 16t3 27.5q0 35 -12 43.5t-35 8.5v-1zM700 170q-26 0 -38.5 -8.5
t-12.5 -45.5t12.5 -45.5t37.5 -8.5q13 0 22.5 1.5t16 6.5t10 16t3.5 29t-3 29t-9.5 16t-16 6.5t-22.5 1.5v2z" />
    <glyph glyph-name="seveneighths" unicode="&#x215e;" horiz-adv-x="828" 
d="M59 -17l491 734h124l-491 -734h-124zM183 309h-103l112 321h-158v70h263v-56zM645 397q28 0 53 -3.5t44 -14.5t30 -32t11 -56q0 -37 -12 -58t-32 -32q26 -10 41 -32.5t15 -66.5q0 -36 -12 -57.5t-33 -33t-48.5 -15t-57.5 -3.5t-57.5 3.5t-48.5 15t-33 33t-12 57.5
q0 44 15 66.5t41 32.5q-20 11 -32 32t-12 58q0 35 11 56t30 32t44.5 14t53.5 3zM645 331q-23 0 -35 -8.5t-12 -43.5q0 -17 3 -27.5t9 -15.5t14.5 -6.5t20.5 -1.5t20.5 1.5t14.5 7t9 16t3 27.5q0 35 -12 43.5t-35 8.5v-1zM645 169q-26 0 -38.5 -8.5t-12.5 -45.5t12.5 -45.5
t37.5 -8.5q13 0 22.5 1.5t16 6.5t10 16t3.5 29t-3 29t-9.5 16t-16 6.5t-22.5 1.5v2z" />
    <glyph glyph-name="partialdiff" unicode="&#x2202;" horiz-adv-x="738" 
 />
    <glyph glyph-name="emptyset" unicode="&#x2205;" horiz-adv-x="738" 
 />
    <glyph glyph-name="product" unicode="&#x220f;" horiz-adv-x="738" 
 />
    <glyph glyph-name="summation" unicode="&#x2211;" horiz-adv-x="738" 
 />
    <glyph glyph-name="minus" unicode="&#x2212;" horiz-adv-x="547" 
d="M37 222v94h473v-94h-473z" />
    <glyph glyph-name="radical" unicode="&#x221a;" horiz-adv-x="738" 
 />
    <glyph glyph-name="infinity" unicode="&#x221e;" horiz-adv-x="738" 
 />
    <glyph glyph-name="integral" unicode="&#x222b;" horiz-adv-x="738" 
 />
    <glyph glyph-name="approxequal" unicode="&#x2248;" horiz-adv-x="501" 
d="M34 361q0 76 29 109.5t77 33.5q44 0 104 -35l40 -24q32 -19 56 -19q15 0 27 6q12 7 19.5 20.5t7.5 35.5h68q0 -56 -18 -88.5t-48 -44.5q-20 -9 -44 -9q-43 0 -86 24l-40 24q-44 28 -70 28q-23 0 -36.5 -14t-13.5 -49zM30 145q0 76 29 109.5t77 33.5q44 0 104 -35l40 -24
q32 -19 56 -19q15 0 27 6q12 7 19.5 20.5t7.5 35.5h68q0 -56 -18 -88.5t-48 -44.5q-20 -9 -44 -9q-43 0 -86 24l-40 24q-44 28 -70 28q-23 0 -36.5 -14t-13.5 -49z" />
    <glyph glyph-name="notequal" unicode="&#x2260;" horiz-adv-x="547" 
d="M511 435v-94h-151l-40 -122h191v-94h-223l-47 -142h-123l47 142h-127v94h158l40 122h-198v94h229l40 122h123l-40 -122h121z" />
    <glyph glyph-name="lessequal" unicode="&#x2264;" horiz-adv-x="393" 
d="M137 371l219 -127v-95l-319 177v91l319 177v-95zM37 -15v94h319v-94h-319z" />
    <glyph glyph-name="greaterequal" unicode="&#x2265;" horiz-adv-x="393" 
d="M356 327l-319 -177v95l219 127l-219 127v95l319 -177v-90zM37 -14v94h319v-94h-319z" />
    <glyph glyph-name="lozenge" unicode="&#x25ca;" horiz-adv-x="738" 
 />
    <glyph glyph-name="a.salt" 
d="M409 0l-13 42q-29 -20 -64 -35.5t-79 -16.5q-74 -2 -116 17.5t-62.5 56t-25.5 89t-5 117.5t4.5 117t25 88t61.5 55.5t113 19.5q45 0 81.5 -16t65.5 -35l13 41h109v-540h-108zM378 426q-21 11 -45.5 21.5t-47.5 10.5q-36 0 -56 -10.5t-30.5 -33.5t-13 -58.5t-2.5 -86.5
t2.5 -86.5t13 -58.5t30.5 -33.5t56 -10.5q24 0 48 10.5t46 23.5z" />
    <glyph glyph-name="e.aalt" horiz-adv-x="554" 
d="M508 15q-54 -8 -108.5 -15t-120.5 -7q-64 0 -109.5 14.5t-74.5 47t-42.5 85.5t-13.5 131q0 54 5.5 104.5t30 89t74 61.5t136.5 23q68 0 112 -14t69.5 -38.5t37 -58t15.5 -72.5q1 -5 1 -9v-9q0 -42 -19.5 -66t-53 -35.5t-79 -13t-97.5 0.5l-94 4q0 -38 3.5 -65.5t14 -45
t32 -26t57.5 -8.5q24 0 52 0.5t56.5 1.5t54.5 2.5t47 2.5zM262 297q8 -1 16 -1h16q22 0 40 3t30 10.5t17.5 21t4.5 35.5q-2 22 -7 39.5t-16.5 29.5t-30.5 18.5t-48 6.5q-38 0 -59.5 -10.5t-32.5 -30t-13.5 -47.5t-2.5 -63v-7z" />
    <glyph glyph-name="T_h.dlig" horiz-adv-x="1073" 
d="M692 511q25 14 57 26t68 14h27q64 0 100.5 -17t54.5 -48t22.5 -75t4.5 -98v-313h-139v304q0 45 -2.5 74.5t-13 47.5t-30.5 25.5t-56 7.5q-23 0 -47.5 -10.5t-45.5 -21.5v-427h-139v598h-232v-598h-145v598h-152v102h668v-189z" />
    <glyph glyph-name="c_h.dlig" horiz-adv-x="1113" 
d="M733 511q25 14 57 26t68 14h27q64 0 100.5 -17t54.5 -48t22.5 -75t4.5 -98v-313h-139v304q0 45 -2.5 74.5t-13 47.5t-30.5 25.5t-56 7.5q-23 0 -47.5 -10.5t-45.5 -21.5v-427h-139v750h139v-239zM504 197q0 -41 -8.5 -78t-33 -65t-68.5 -44t-115 -16q-86 0 -134 23
t-72 61.5t-29.5 89t-5.5 104.5t5.5 104.5t29.5 89t72 61.5t134 23q71 0 115 -16.5t68.5 -44t33 -64.5t8.5 -78h-130q0 30 -4.5 51.5t-15.5 35t-29 20t-46 6.5q-36 0 -57 -10.5t-31 -33.5t-12.5 -59t-2.5 -86t2.5 -86t12.5 -59t31 -33.5t57 -10.5q28 0 46 6.5t29 20t15.5 35
t4.5 51.5z" />
    <glyph glyph-name="c_t.dlig" horiz-adv-x="901" 
d="M861 512v-94h-109v-256q0 -33 12 -49.5t41 -18.5q5 -1 16 -1q9 0 19.5 0.5t22.5 1.5l8 -92q-29 -4 -56.5 -7.5t-52.5 -3.5q-35 0 -62.5 8.5t-47 28t-29.5 52.5t-10 81v256h-264q-10 25 -26.5 34.5t-43.5 9.5q-36 0 -57 -10.5t-31 -33.5t-12.5 -59t-2.5 -86t2.5 -86
t12.5 -59t31 -33.5t57 -10.5q28 0 46 6.5t29 20t15.5 35t4.5 51.5h130q0 -41 -8.5 -78t-33 -65t-68.5 -44t-115 -16q-86 0 -134 23t-72 61.5t-29.5 89t-5.5 104.5t5.5 104.5t29.5 89t72 61.5t134 23q57 0 95 -10.5t64 -29.5h175v159h139v-159z" />
    <glyph glyph-name="f_b.dlig" horiz-adv-x="913" 
d="M81 588q0 75 38.5 115t107.5 46q8 1 15.5 1.5t15.5 0.5q42 0 89 -12h194v-228q25 14 57 26t68 13q74 2 116 -17t62.5 -55.5t25.5 -89.5t5 -118q0 -64 -4.5 -116t-24.5 -88.5t-60 -56t-110 -19.5q-48 0 -85 16t-68 37l-13 -43h-109v654h-69q-23 3 -41 3q-39 0 -55 -16.5
t-16 -53.5v-47h102v-94h-102v-446h-139v446h-57v94h57v48zM540 117q22 -13 46 -23.5t48 -10.5q36 0 56 10.5t30.5 33.5t13 58.5t2.5 86.5t-2.5 86.5t-13 58.5t-30.5 33.5t-56 10.5q-23 0 -47.5 -10.5t-45.5 -21.5z" />
    <glyph glyph-name="f_f_j.dlig" horiz-adv-x="956" 
d="M80 587q0 75 38.5 115t107.5 46q8 1 15.5 1.5t15.5 0.5q44 0 91 -12l-8 -84q-26 3 -46 3q-41 0 -57.5 -16t-16.5 -54v-47h212v47q0 75 38.5 115t107.5 46q8 1 15.5 1.5t15.5 0.5q44 0 91 -12l-8 -84q-26 3 -46 3q-41 0 -57.5 -16t-16.5 -54v-47h332v-571
q0 -72 -29.5 -109.5t-85.5 -46.5q-27 -6 -56 -6q-23 0 -45.5 2.5t-42.5 7.5l8 85q12 -1 22.5 -1.5t19.5 -0.5q11 0 16 1q29 2 41 19t12 49v477h-193v-446h-139v446h-212v-446h-139v446h-57v94h57zM762 594v106h142v-106h-142z" />
    <glyph glyph-name="f_h.dlig" horiz-adv-x="927" 
d="M81 588q0 75 38.5 115t107.5 46q8 1 15.5 1.5t15.5 0.5q42 0 89 -12h199v-228q25 14 57 26t68 14h27q64 0 100.5 -17t54.5 -48t22.5 -75t4.5 -98v-313h-139v304q0 45 -2.5 74.5t-13 47.5t-30.5 25.5t-56 7.5q-23 0 -47.5 -10.5t-45.5 -21.5v-427h-139v654h-67
q-26 3 -46 3q-41 0 -57.5 -16t-16.5 -54v-47h102v-94h-102v-446h-139v446h-57v94h57v48z" />
    <glyph glyph-name="f_j.dlig" horiz-adv-x="604" 
d="M81 587q0 75 38.5 115t107.5 46q8 1 15.5 1.5t15.5 0.5q44 0 91 -12l-8 -84q-26 3 -46 3q-41 0 -57.5 -16t-16.5 -54v-47h332v-571q0 -72 -29.5 -109.5t-85.5 -46.5q-27 -6 -56 -6q-23 0 -45.5 2.5t-42.5 7.5l8 85q12 -1 22.5 -1.5t19.5 -0.5q11 0 16 1q29 2 41 19t12 49
v477h-193v-446h-139v446h-57v94h57v47zM411 594v106h142v-106h-142z" />
    <glyph glyph-name="f_k.dlig" horiz-adv-x="918" 
d="M547 281v-282h-139v654h-67q-26 3 -46 3q-41 0 -57.5 -16t-16.5 -54v-47h102v-94h-102v-446h-139v446h-57v94h57v47q0 75 38.5 115t107.5 46q8 1 15.5 1.5t15.5 0.5q40 0 89 -11h199v-444l179 246h150l-196 -252l223 -288h-150z" />
    <glyph glyph-name="s_p.dlig" horiz-adv-x="1106" 
d="M158 170q1 -50 24 -71t78 -21q53 0 76 18.5t23 55.5q0 42 -20.5 61t-74.5 24q-64 7 -108 15.5t-71.5 24.5t-39.5 41.5t-12 65.5q0 38 9.5 68.5t34 51.5t68.5 32.5t113 11.5q77 0 125 -15h316l13 -38q29 20 64 36t79 17q74 1 116 -18t62.5 -55.5t25.5 -89t5 -117.5
t-5 -118t-25.5 -89.5t-62.5 -55.5t-116 -17q-36 1 -68 13.5t-57 26.5v-212h-139v625h-260q-21 20 -70 20q-52 0 -72.5 -18.5t-20.5 -57.5q0 -18 5 -30t16.5 -20.5t31 -13t48.5 -7.5q61 -8 105 -18t73 -28t43 -45.5t14 -70.5q0 -35 -11.5 -64.5t-39 -51.5t-73 -34t-112.5 -12
q-66 0 -110.5 10.5t-72.5 32.5t-40 56t-13 82zM730 113q21 -11 45.5 -21.5t47.5 -10.5q36 0 56 10.5t30.5 33.5t13 58.5t2.5 86.5t-2.5 86.5t-13 58.5t-30.5 33.5t-56 10.5q-24 0 -48 -10.5t-46 -23.5z" />
    <glyph glyph-name="s_t.dlig" horiz-adv-x="903" 
d="M861 537v-94h-109v-282q0 -33 12 -49.5t41 -18.5q5 -1 16 -1q9 0 19.5 0.5t22.5 1.5l8 -92q-29 -4 -56.5 -7.5t-52.5 -3.5q-35 0 -62.5 8.5t-47 28t-29.5 52.5t-10 81v282h-280q-21 20 -70 20q-52 0 -72.5 -18.5t-20.5 -57.5q0 -18 5 -30t16.5 -20.5t31 -13t48.5 -7.5
q61 -8 105 -18t73 -28t43 -45.5t14 -70.5q0 -35 -11.5 -64.5t-39 -51.5t-73 -34t-112.5 -12q-66 0 -110.5 10.5t-72.5 32.5t-40 56t-13 82h131q1 -50 24 -71t78 -21q53 0 76 18.5t23 55.5q0 42 -20.5 61t-74.5 24q-64 7 -108 15.5t-71.5 24.5t-39.5 41.5t-12 65.5
q0 38 9.5 68.5t34 51.5t68.5 32.5t113 11.5q76 0 123 -15h227v133h139v-132h107z" />
    <glyph glyph-name="zero.tnum.oldstyle" horiz-adv-x="516" 
d="M258 547q72 0 113 -19t60.5 -51.5t24 -76t4.5 -92.5v-39v-39q0 -48 -4.5 -91.5t-24 -76.5t-60.5 -52t-113 -19t-113 19t-60.5 52t-24 76.5t-4.5 91.5v39v39q0 49 4.5 92.5t24 76t60.5 51.5t113 19zM258 456q-27 0 -42 -10t-21.5 -31.5t-8 -54.5t-1.5 -79v-31
q0 -44 1.5 -76t9 -52.5t22 -30t41.5 -9.5t42 10t21.5 31.5t8 55t1.5 79.5v31q0 44 -1.5 76t-9 52.5t-22 30t-41.5 9.5v-1z" />
    <glyph glyph-name="one.tnum.oldstyle" horiz-adv-x="354" 
d="M161 -1v439l-82 -14l-17 89l154 27h77v-540z" />
    <glyph glyph-name="two.tnum.oldstyle" horiz-adv-x="510" 
d="M70 389q0 40 9.5 69.5t32 48.5t59 28.5t90.5 9.5t90 -11.5t58 -32.5t31.5 -50.5t9.5 -65.5q0 -33 -11.5 -58.5t-31.5 -45t-47.5 -33.5t-59.5 -26q-44 -14 -72.5 -33.5t-33.5 -56.5v-44h254v-89h-386v103q0 44 13.5 75t36 53t51.5 37t59 27q49 15 74.5 34.5t25.5 56.5
q0 36 -15 53.5t-51 17.5q-38 0 -52.5 -17t-15.5 -50h-118z" />
    <glyph glyph-name="three.tnum.oldstyle" horiz-adv-x="600" 
d="M68 372q0 59 17.5 94t48.5 53t72.5 23t89.5 5t89.5 -5.5t72 -23.5t48 -53.5t17.5 -95.5q0 -38 -6.5 -66t-19 -47.5t-30 -31.5t-39.5 -19q25 -6 45.5 -17.5t35 -32t22.5 -51t8 -73.5q0 -62 -18.5 -98t-51 -55.5t-76.5 -25t-95 -5.5t-94.5 5.5t-76 24.5t-51.5 55t-19 96v32
h137v-12q0 -33 6.5 -53t19 -31.5t32.5 -15.5t47 -4q28 0 47.5 4t32.5 15.5t19 32.5t6 55t-6 55t-19 33t-32.5 16t-47.5 4h-51v85h51q26 0 44 4.5t29.5 16.5t17 32t5.5 52t-5.5 52.5t-17 32t-30 16t-44.5 4.5t-44.5 -4.5t-30.5 -15.5t-17.5 -31.5t-5.5 -51.5v-12h-130z" />
    <glyph glyph-name="four.tnum.oldstyle" horiz-adv-x="600" 
d="M559 103v-85h-76v-161h-127v161h-318v93l230 429h216v-437h75zM155 103h200v349h-15z" />
    <glyph glyph-name="five.tnum.oldstyle" horiz-adv-x="600" 
d="M216 445l-15 -175q28 13 61.5 23.5t66.5 10.5q49 0 88 -5.5t66.5 -27t42.5 -63.5t15 -115q0 -67 -10.5 -113.5t-37.5 -75t-74 -41.5t-120 -13q-51 0 -95 6.5t-76 26.5t-51 57.5t-19 100.5v31h137q0 -40 6 -64.5t18.5 -38t32.5 -18t48 -4.5t48 5t33 18.5t18.5 37t5.5 61.5
q0 51 -5.5 82t-17.5 48t-31.5 22.5t-47.5 5.5q-29 0 -54.5 -11t-48.5 -25h-129l30 349h408v-95h-293z" />
    <glyph glyph-name="six.tnum.oldstyle" horiz-adv-x="600" 
d="M200 372q37 17 73 28t73 11q36 0 72 -6t64 -25.5t45.5 -57.5t17.5 -102q-1 -51 -10.5 -93t-36 -73t-73.5 -48t-123 -17q-87 0 -136 22.5t-73 62.5t-29.5 93.5t-5.5 116.5v55v55q0 63 5.5 116.5t29.5 93.5t73 62.5t136 22.5q68 0 111 -13.5t67.5 -39t33.5 -63t9 -85.5
h-126q-2 49 -21.5 74t-73.5 25q-37 0 -57.5 -11t-30.5 -32t-12.5 -50.5t-2.5 -66.5zM303 330q-29 0 -53.5 -11t-50.5 -26v-74q1 -30 4.5 -53.5t14 -40t31 -25.5t54.5 -9t54.5 10t31 28t14 42.5t4.5 54.5q0 34 -6 54.5t-18.5 31.5t-32.5 15t-47 4v-1z" />
    <glyph glyph-name="seven.tnum.oldstyle" horiz-adv-x="600" 
d="M318 -140h-150l201 578h-288v102h438v-87z" />
    <glyph glyph-name="eight.tnum.oldstyle" horiz-adv-x="600" 
d="M301 691q49 0 91 -5.5t73 -23.5t48.5 -53.5t17.5 -95.5q0 -76 -26 -112.5t-69 -50.5q27 -6 48.5 -18t36.5 -32.5t23.5 -51t8.5 -74.5q0 -62 -19.5 -98t-53.5 -55.5t-80.5 -25t-99.5 -5.5t-99.5 5.5t-80.5 25t-53.5 55.5t-19.5 98q0 44 8.5 74.5t23.5 51t36.5 32.5
t48.5 18q-22 7 -39.5 19t-30 31.5t-19 47t-6.5 65.5q0 60 17.5 95t49 53.5t73.5 23.5t92 5v1zM301 599q-27 0 -46.5 -4.5t-31.5 -16t-18 -32t-6 -52.5t6 -52.5t18 -32t31.5 -16t46.5 -4.5t46.5 4.5t31.5 16t18 32t6 52.5t-6 52.5t-18 32t-31.5 16t-46.5 4.5zM300 303
q-29 0 -49.5 -4.5t-33.5 -16.5t-19 -33t-6 -54t6 -54t19.5 -33t33.5 -16t49 -4t49.5 4t34 15.5t20 32.5t6.5 55t-6 55t-19.5 33t-34 16t-49.5 4h-1z" />
    <glyph glyph-name="nine.tnum.oldstyle" horiz-adv-x="600" 
d="M400 254q-37 -17 -73 -28t-73 -11q-36 0 -72 6t-64 25.5t-45.5 57.5t-17.5 102q1 51 10.5 93t36 73t73.5 48t123 17q87 0 136 -22.5t73 -62.5t29.5 -93.5t5.5 -116.5v-55v-55q0 -63 -5.5 -116.5t-29.5 -93.5t-73 -62.5t-136 -22.5q-68 0 -111 13.5t-67.5 39t-33.5 63
t-9 85.5h126q2 -49 21.5 -74t73.5 -25q37 0 57.5 11t30.5 32t12.5 50.5t2.5 66.5zM298 535q-34 0 -54.5 -9.5t-31 -27t-14 -41.5t-4.5 -54q0 -34 6 -55t18.5 -32.5t32.5 -15.5t47 -4q29 0 53.5 11t50.5 26v74q-1 30 -4.5 53.5t-14 40t-31 25.5t-54.5 9z" />
    <glyph glyph-name="zero.oldstyle" horiz-adv-x="497" 
d="M248 547q72 0 113 -19t60.5 -51.5t24 -76t4.5 -92.5v-39v-39q0 -48 -4.5 -91.5t-24 -76.5t-60.5 -52t-113 -19t-113 19t-60.5 52t-24 76.5t-4.5 91.5v39v39q0 49 4.5 92.5t24 76t60.5 51.5t113 19zM248 456q-27 0 -42 -10t-21.5 -31.5t-8 -54.5t-1.5 -79v-31
q0 -44 1.5 -76t9 -52.5t22 -30t41.5 -9.5t42 10t21.5 31.5t8 55t1.5 79.5v31q0 44 -1.5 76t-9 52.5t-22 30t-41.5 9.5v-1z" />
    <glyph glyph-name="one.oldstyle" horiz-adv-x="315" 
d="M122 -1v439l-82 -14l-17 89l154 27h77v-540z" />
    <glyph glyph-name="two.oldstyle" horiz-adv-x="456" 
d="M39 389q0 40 9.5 69.5t32 48.5t59 28.5t90.5 9.5t90 -11.5t58 -32.5t31.5 -50.5t9.5 -65.5q0 -33 -11.5 -58.5t-31.5 -45t-47.5 -33.5t-59.5 -26q-44 -14 -72.5 -33.5t-33.5 -56.5v-44h254v-89h-386v103q0 44 13.5 75t36 53t51.5 37t59 27q49 15 74.5 34.5t25.5 56.5
q0 36 -15 53.5t-51 17.5q-38 0 -52.5 -17t-15.5 -50h-118z" />
    <glyph glyph-name="three.oldstyle" horiz-adv-x="556" 
d="M38 372q0 59 17.5 94t48.5 53t72.5 23t89.5 5t89.5 -5.5t72 -23.5t48 -53.5t17.5 -95.5q0 -38 -6.5 -66t-19 -47.5t-30 -31.5t-39.5 -19q25 -6 45.5 -17.5t35 -32t22.5 -51t8 -73.5q0 -62 -18.5 -98t-51 -55.5t-76.5 -25t-95 -5.5t-94.5 5.5t-76 24.5t-51.5 55t-19 96v32
h137v-12q0 -33 6.5 -53t19 -31.5t32.5 -15.5t47 -4q28 0 47.5 4t32.5 15.5t19 32.5t6 55t-6 55t-19 33t-32.5 16t-47.5 4h-51v85h51q26 0 44 4.5t29.5 16.5t17 32t5.5 52t-5.5 52.5t-17 32t-30 16t-44.5 4.5t-44.5 -4.5t-30.5 -15.5t-17.5 -31.5t-5.5 -51.5v-12h-130z" />
    <glyph glyph-name="four.oldstyle" horiz-adv-x="580" 
d="M546 103v-85h-76v-161h-127v161h-318v93l230 429h216v-437h75zM142 103h200v349h-15z" />
    <glyph glyph-name="five.oldstyle" horiz-adv-x="553" 
d="M188 445l-15 -175q28 13 61.5 23.5t66.5 10.5q49 0 88 -5.5t66.5 -27t42.5 -63.5t15 -115q0 -67 -10.5 -113.5t-37.5 -75t-74 -41.5t-120 -13q-51 0 -95 6.5t-76 26.5t-51 57.5t-19 100.5v31h137q0 -40 6 -64.5t18.5 -38t32.5 -18t48 -4.5t48 5t33 18.5t18.5 37t5.5 61.5
q0 51 -5.5 82t-17.5 48t-31.5 22.5t-47.5 5.5q-29 0 -54.5 -11t-48.5 -25h-129l30 349h408v-95h-293z" />
    <glyph glyph-name="six.oldstyle" 
d="M189 372q37 17 73 28t73 11q36 0 72 -6t64 -25.5t45.5 -57.5t17.5 -102q-1 -51 -10.5 -93t-36 -73t-73.5 -48t-123 -17q-87 0 -136 22.5t-73 62.5t-29.5 93.5t-5.5 116.5v55v55q0 63 5.5 116.5t29.5 93.5t73 62.5t136 22.5q68 0 111 -13.5t67.5 -39t33.5 -63t9 -85.5
h-126q-2 49 -21.5 74t-73.5 25q-37 0 -57.5 -11t-30.5 -32t-12.5 -50.5t-2.5 -66.5zM292 330q-29 0 -53.5 -11t-50.5 -26v-74q1 -30 4.5 -53.5t14 -40t31 -25.5t54.5 -9t54.5 10t31 28t14 42.5t4.5 54.5q0 34 -6 54.5t-18.5 31.5t-32.5 15t-47 4v-1z" />
    <glyph glyph-name="seven.oldstyle" horiz-adv-x="487" 
d="M265 -140h-150l201 578h-288v102h438v-87z" />
    <glyph glyph-name="eight.oldstyle" horiz-adv-x="597" 
d="M299 691q49 0 91 -5.5t73 -23.5t48.5 -53.5t17.5 -95.5q0 -76 -26 -112.5t-69 -50.5q27 -6 48.5 -18t36.5 -32.5t23.5 -51t8.5 -74.5q0 -62 -19.5 -98t-53.5 -55.5t-80.5 -25t-99.5 -5.5t-99.5 5.5t-80.5 25t-53.5 55.5t-19.5 98q0 44 8.5 74.5t23.5 51t36.5 32.5
t48.5 18q-22 7 -39.5 19t-30 31.5t-19 47t-6.5 65.5q0 60 17.5 95t49 53.5t73.5 23.5t92 5v1zM299 599q-27 0 -46.5 -4.5t-31.5 -16t-18 -32t-6 -52.5t6 -52.5t18 -32t31.5 -16t46.5 -4.5t46.5 4.5t31.5 16t18 32t6 52.5t-6 52.5t-18 32t-31.5 16t-46.5 4.5zM299 303
q-29 0 -49.5 -4.5t-34 -16.5t-19.5 -33t-6 -54t6 -54t19.5 -33t33.5 -16t49 -4t49.5 4t34 15.5t20 32.5t6.5 55t-6 55t-19.5 33t-34 16t-49.5 4z" />
    <glyph glyph-name="nine.oldstyle" 
d="M377 254q-37 -17 -73 -28t-73 -11q-36 0 -72 6t-64 25.5t-45.5 57.5t-17.5 102q1 51 10.5 93t36 73t73.5 48t123 17q87 0 136 -22.5t73 -62.5t29.5 -93.5t5.5 -116.5v-55v-55q0 -63 -5.5 -116.5t-29.5 -93.5t-73 -62.5t-136 -22.5q-68 0 -111 13.5t-67.5 39t-33.5 63
t-9 85.5h126q2 -49 21.5 -74t73.5 -25q37 0 57.5 11t30.5 32t12.5 50.5t2.5 66.5zM275 535q-34 0 -54.5 -9.5t-31 -27t-14 -41.5t-4.5 -54q0 -34 6 -55t18.5 -32.5t32.5 -15.5t47 -4q29 0 53.5 11t50.5 26v74q-1 30 -4.5 53.5t-14 40t-31 25.5t-54.5 9z" />
    <glyph glyph-name="zero.case" horiz-adv-x="603" 
d="M291 690q88 0 137.5 -23.5t73.5 -64t29.5 -95.5t5.5 -117v-51v-50q0 -62 -5.5 -116.5t-29.5 -95t-73.5 -64.5t-137.5 -24t-137.5 24t-73.5 64.5t-29.5 95t-5.5 116.5v50v51q0 62 5.5 117t29.5 95.5t73.5 64t137.5 23.5zM291 588q-38 0 -58.5 -12.5t-31 -38.5t-12.5 -65
t-2 -92v-40v-40q0 -53 2 -92t12.5 -65t31 -38.5t58.5 -12.5q37 0 58 12.5t31.5 38.5t12.5 65t2 92v40v40q0 53 -2 92t-12.5 65t-31.5 38.5t-58 12.5z" />
    <glyph glyph-name="one.case" horiz-adv-x="350" 
d="M147 0v565l-107 -19l-19 101l186 33h84v-680h-144z" />
    <glyph glyph-name="two.case" horiz-adv-x="538" 
d="M38 478q0 54 10 94t35.5 66t68.5 39t111 13q69 1 114.5 -12.5t73.5 -39.5t39.5 -63.5t11.5 -84.5q0 -43 -14 -75t-39 -56t-59 -42t-74 -32q-32 -11 -59 -23t-46.5 -27.5t-30.5 -35.5t-11 -47v-50h331v-102h-470v126q0 56 17 95t45 66.5t63.5 46t73.5 33.5q66 21 100 48
t34 75t-21.5 72.5t-75.5 24.5q-57 0 -78 -26t-22 -82z" />
    <glyph glyph-name="three.case" horiz-adv-x="557" 
d="M38 515q0 59 17.5 94t48.5 53t72.5 23t89.5 5t89.5 -5.5t72 -23.5t48 -53.5t17.5 -95.5q0 -38 -6.5 -66t-19 -47.5t-30 -31.5t-39.5 -19q25 -6 45.5 -17.5t35 -32t22.5 -51t8 -73.5q0 -62 -18.5 -98t-51 -55.5t-76.5 -25t-95 -5.5t-94.5 5.5t-76 24.5t-51.5 55t-19 96v32
h137v-12q0 -32 6.5 -52.5t19 -32t32.5 -15.5t47 -4q28 0 47.5 4t32.5 16t19 33t6 55t-6 55t-19 33t-32.5 16t-47.5 4h-51v85h51q26 0 44 4.5t29.5 16.5t17 32t5.5 52t-5.5 52.5t-17 32t-30 16t-44.5 4.5t-44.5 -4.5t-30.5 -15.5t-17.5 -31.5t-5.5 -51.5v-12h-130z" />
    <glyph glyph-name="four.case" horiz-adv-x="580" 
d="M546 245v-85h-76v-160h-127v160h-318v93l230 429h216v-437h75zM142 245h200v349h-15z" />
    <glyph glyph-name="five.case" horiz-adv-x="553" 
d="M188 584l-15 -175q28 13 61.5 23.5t66.5 10.5q49 0 88 -5.5t66.5 -27t42.5 -63.5t15 -115q0 -67 -10.5 -113t-37.5 -74.5t-74 -41.5t-120 -13q-51 0 -95 6.5t-76 26.5t-51 57.5t-19 100.5v31h137q0 -40 6 -64.5t18.5 -38t32.5 -18t48 -4.5t48 5t33 18.5t18.5 37t5.5 61.5
q0 51 -5.5 82t-17.5 48t-31.5 22.5t-47.5 5.5q-29 0 -54.5 -11t-48.5 -25h-129l30 349h408v-95z" />
    <glyph glyph-name="six.case" 
d="M189 372q37 17 73 28t73 11q36 0 72 -6t64 -25.5t45.5 -57.5t17.5 -102q-1 -51 -10.5 -93t-36 -73t-73.5 -48t-123 -17q-87 0 -136 22.5t-73 62.5t-29.5 93.5t-5.5 116.5v55v55q0 63 5.5 116.5t29.5 93.5t73 62.5t136 22.5q68 0 111 -13.5t67.5 -39t33.5 -63t9 -85.5
h-126q-2 49 -21.5 74t-73.5 25q-37 0 -57.5 -11t-30.5 -32t-12.5 -50.5t-2.5 -66.5zM292 330q-29 0 -53.5 -11t-50.5 -26v-74q1 -30 4.5 -53.5t14 -40t31 -25.5t54.5 -9t54.5 10t31 28t14 42.5t4.5 54.5q0 34 -6 54.5t-18.5 31.5t-32.5 15t-47 4v-1z" />
    <glyph glyph-name="seven.case" horiz-adv-x="487" 
d="M265 0h-150l201 578h-288v102h438v-87z" />
    <glyph glyph-name="eight.case" horiz-adv-x="597" 
d="M299 691q49 0 91 -5.5t73 -23.5t48.5 -53.5t17.5 -95.5q0 -76 -26 -112.5t-69 -50.5q27 -6 48.5 -18t36.5 -32.5t23.5 -51t8.5 -74.5q0 -62 -19.5 -98t-53.5 -55.5t-80.5 -25t-99.5 -5.5t-99.5 5.5t-80.5 25t-53.5 55.5t-19.5 98q0 44 8.5 74.5t23.5 51t36.5 32.5
t48.5 18q-22 7 -39.5 19t-30 31.5t-19 47t-6.5 65.5q0 60 17.5 95t49 53.5t73.5 23.5t92 5v1zM299 599q-27 0 -46.5 -4.5t-31.5 -16t-18 -32t-6 -52.5t6 -52.5t18 -32t31.5 -16t46.5 -4.5t46.5 4.5t31.5 16t18 32t6 52.5t-6 52.5t-18 32t-31.5 16t-46.5 4.5zM299 303
q-29 0 -49.5 -4.5t-34 -16.5t-19.5 -33t-6 -54t6 -54t19.5 -33t33.5 -16t49 -4t49.5 4t34 15.5t20 32.5t6.5 55t-6 55t-19.5 33t-34 16t-49.5 4z" />
    <glyph glyph-name="nine.case" 
d="M377 307q-37 -17 -73 -28t-73 -11q-36 0 -72 6t-64 25.5t-45.5 57.5t-17.5 102q1 51 10.5 93t36 73t73.5 48t123 17q87 0 136 -22.5t73 -62.5t29.5 -93.5t5.5 -116.5v-55v-55q0 -63 -5.5 -116.5t-29.5 -93.5t-73 -62.5t-136 -22.5q-68 0 -111 13.5t-67.5 39t-33.5 63
t-9 85.5h126q2 -49 21.5 -74t73.5 -25q37 0 57.5 11t30.5 32t12.5 50.5t2.5 66.5zM275 588q-34 0 -54.5 -9.5t-31 -27t-14 -41.5t-4.5 -54q0 -34 6 -55t18.5 -32.5t32.5 -15.5t47 -4q29 0 53.5 11t50.5 26v74q-1 30 -4.5 53.5t-14 40t-31 25.5t-54.5 9z" />
    <glyph glyph-name="zero.tnum" horiz-adv-x="600" 
d="M300 690q88 0 137.5 -23.5t73.5 -64t29.5 -95.5t5.5 -117v-51v-50q0 -62 -5.5 -116.5t-29.5 -95t-73.5 -64.5t-137.5 -24t-137.5 24t-73.5 64.5t-29.5 95t-5.5 116.5v50v51q0 62 5.5 117t29.5 95.5t73.5 64t137.5 23.5zM300 588q-38 0 -58.5 -12.5t-31 -38.5t-12.5 -65
t-2 -92v-40v-40q0 -53 2 -92t12.5 -65t31 -38.5t58.5 -12.5q37 0 58 12.5t31.5 38.5t12.5 65t2 92v40v40q0 53 -2 92t-12.5 65t-31.5 38.5t-58 12.5z" />
    <glyph glyph-name="one.tnum" horiz-adv-x="600" 
d="M291 0v565l-107 -19l-19 101l186 33h84v-680h-144z" />
    <glyph glyph-name="two.tnum" horiz-adv-x="600" 
d="M73 478q0 54 10 94t35.5 66t68.5 39t111 13q69 1 114.5 -12.5t73.5 -39.5t39.5 -63.5t11.5 -84.5q0 -43 -14 -75t-39 -56t-59 -42t-74 -32q-32 -11 -59 -23t-46.5 -27.5t-30.5 -35.5t-11 -47v-50h331v-102h-470v126q0 56 17 95t45 66.5t63.5 46t73.5 33.5q66 21 100 48
t34 75t-21.5 72.5t-75.5 24.5q-57 0 -78 -26t-22 -82z" />
    <glyph glyph-name="three.tnum" horiz-adv-x="600" 
d="M68 515q0 59 17.5 94t48.5 53t72.5 23t89.5 5t89.5 -5.5t72 -23.5t48 -53.5t17.5 -95.5q0 -38 -6.5 -66t-19 -47.5t-30 -31.5t-39.5 -19q25 -6 45.5 -17.5t35 -32t22.5 -51t8 -73.5q0 -62 -18.5 -98t-51 -55.5t-76.5 -25t-95 -5.5t-94.5 5.5t-76 24.5t-51.5 55t-19 96v32
h137v-12q0 -32 6.5 -52.5t19 -32t32.5 -15.5t47 -4q28 0 47.5 4t32.5 16t19 33t6 55t-6 55t-19 33t-32.5 16t-47.5 4h-51v85h51q26 0 44 4.5t29.5 16.5t17 32t5.5 52t-5.5 52.5t-17 32t-30 16t-44.5 4.5t-44.5 -4.5t-30.5 -15.5t-17.5 -31.5t-5.5 -51.5v-12h-130z" />
    <glyph glyph-name="four.tnum" horiz-adv-x="600" 
d="M559 245v-85h-76v-160h-127v160h-318v93l230 429h216v-437h75zM155 245h200v349h-15z" />
    <glyph glyph-name="five.tnum" horiz-adv-x="600" 
d="M216 584l-15 -175q28 13 61.5 23.5t66.5 10.5q49 0 88 -5.5t66.5 -27t42.5 -63.5t15 -115q0 -67 -10.5 -113t-37.5 -74.5t-74 -41.5t-120 -13q-51 0 -95 6.5t-76 26.5t-51 57.5t-19 100.5v31h137q0 -40 6 -64.5t18.5 -38t32.5 -18t48 -4.5t48 5t33 18.5t18.5 37t5.5 61.5
q0 51 -5.5 82t-17.5 48t-31.5 22.5t-47.5 5.5q-29 0 -54.5 -11t-48.5 -25h-129l30 349h408v-95z" />
    <glyph glyph-name="six.tnum" horiz-adv-x="600" 
d="M200 372q37 17 73 28t73 11q36 0 72 -6t64 -25.5t45.5 -57.5t17.5 -102q-1 -51 -10.5 -93t-36 -73t-73.5 -48t-123 -17q-87 0 -136 22.5t-73 62.5t-29.5 93.5t-5.5 116.5v55v55q0 63 5.5 116.5t29.5 93.5t73 62.5t136 22.5q68 0 111 -13.5t67.5 -39t33.5 -63t9 -85.5
h-126q-2 49 -21.5 74t-73.5 25q-37 0 -57.5 -11t-30.5 -32t-12.5 -50.5t-2.5 -66.5zM303 330q-29 0 -53.5 -11t-50.5 -26v-74q1 -30 4.5 -53.5t14 -40t31 -25.5t54.5 -9t54.5 10t31 28t14 42.5t4.5 54.5q0 34 -6 54.5t-18.5 31.5t-32.5 15t-47 4v-1z" />
    <glyph glyph-name="seven.tnum" horiz-adv-x="600" 
d="M318 0h-150l201 578h-288v102h438v-87z" />
    <glyph glyph-name="eight.tnum" horiz-adv-x="600" 
d="M301 691q49 0 91 -5.5t73 -23.5t48.5 -53.5t17.5 -95.5q0 -76 -26 -112.5t-69 -50.5q27 -6 48.5 -18t36.5 -32.5t23.5 -51t8.5 -74.5q0 -62 -19.5 -98t-53.5 -55.5t-80.5 -25t-99.5 -5.5t-99.5 5.5t-80.5 25t-53.5 55.5t-19.5 98q0 44 8.5 74.5t23.5 51t36.5 32.5
t48.5 18q-22 7 -39.5 19t-30 31.5t-19 47t-6.5 65.5q0 60 17.5 95t49 53.5t73.5 23.5t92 5v1zM301 599q-27 0 -46.5 -4.5t-31.5 -16t-18 -32t-6 -52.5t6 -52.5t18 -32t31.5 -16t46.5 -4.5t46.5 4.5t31.5 16t18 32t6 52.5t-6 52.5t-18 32t-31.5 16t-46.5 4.5zM300 303
q-29 0 -49.5 -4.5t-33.5 -16.5t-19 -33t-6 -54t6 -54t19.5 -33t33.5 -16t49 -4t49.5 4t34 15.5t20 32.5t6.5 55t-6 55t-19.5 33t-34 16t-49.5 4h-1z" />
    <glyph glyph-name="nine.tnum" horiz-adv-x="600" 
d="M400 307q-37 -17 -73 -28t-73 -11q-36 0 -72 6t-64 25.5t-45.5 57.5t-17.5 102q1 51 10.5 93t36 73t73.5 48t123 17q87 0 136 -22.5t73 -62.5t29.5 -93.5t5.5 -116.5v-55v-55q0 -63 -5.5 -116.5t-29.5 -93.5t-73 -62.5t-136 -22.5q-68 0 -111 13.5t-67.5 39t-33.5 63
t-9 85.5h126q2 -49 21.5 -74t73.5 -25q37 0 57.5 11t30.5 32t12.5 50.5t2.5 66.5zM298 588q-34 0 -54.5 -9.5t-31 -27t-14 -41.5t-4.5 -54q0 -34 6 -55t18.5 -32.5t32.5 -15.5t47 -4q29 0 53.5 11t50.5 26v74q-1 30 -4.5 53.5t-14 40t-31 25.5t-54.5 9z" />
    <glyph glyph-name="zero.dnom" horiz-adv-x="346" 
d="M173 395q58 0 88 -17t43 -44.5t14 -64t1 -75.5t-1 -75t-14 -64t-43 -45t-88 -17t-88 17t-43 45t-14 64t-1 75t1 75.5t14 64t43 44.5t88 17zM173 326q-20 0 -30.5 -7.5t-15 -24.5t-5 -43.5t-0.5 -64.5q0 -33 1 -56t6 -37.5t15 -21.5t29 -7q20 0 30.5 7.5t15 24.5t5 43.5
t0.5 64.5q0 33 -1 56t-6 37.5t-15 21t-29 6.5v1z" />
    <glyph glyph-name="one.dnom" horiz-adv-x="214" 
d="M78 0v312l-58 -10l-13 69l113 20h58v-391h-100z" />
    <glyph glyph-name="two.dnom" horiz-adv-x="314" 
d="M15 282q0 58 30 87t110 29q39 0 65 -8.5t42 -24t23 -37.5t7 -48q0 -25 -8.5 -43.5t-23 -33t-34.5 -25t-42 -18.5q-35 -12 -56 -24t-21 -40v-26h184v-70h-281v77q0 32 10 55t26.5 39t37.5 26.5t42 19.5q35 11 53.5 24.5t18.5 38.5q0 24 -10.5 35.5t-35.5 11.5
q-26 0 -36 -11t-10 -35z" />
    <glyph glyph-name="three.dnom" horiz-adv-x="327" 
d="M20 291q0 35 11 56t29.5 32t43.5 14t52 3t52 -3.5t43.5 -14.5t29.5 -32t11 -56q0 -37 -12 -58t-32 -32q24 -10 38.5 -32t14.5 -65q0 -36 -11.5 -58t-31 -33t-46 -14.5t-55.5 -3.5t-55 3.5t-45.5 14.5t-31.5 32t-12 57v24h96v-13q1 -35 13 -43t36 -8q12 0 21 1.5t15 6.5
t9 16t3 29t-3 29t-9 16t-15 6.5t-21 1.5h-39v61h38q11 0 19 1.5t13.5 7t8 16t2.5 27.5q0 35 -10.5 43.5t-33.5 8.5t-34 -8.5t-11 -43.5v-12h-92z" />
    <glyph glyph-name="four.dnom" horiz-adv-x="335" 
d="M318 150v-60h-42v-89h-91v89h-177v59l123 244h145v-243h42zM97 150h88v164h-8z" />
    <glyph glyph-name="five.dnom" horiz-adv-x="323" 
d="M122 325l-7 -80q13 5 28.5 9.5t31.5 4.5q28 0 51.5 -3.5t40.5 -16t26.5 -37.5t9.5 -67q0 -38 -6.5 -64.5t-22.5 -43.5t-44 -25t-71 -8q-30 0 -56 3.5t-45.5 15.5t-31.5 34t-12 59v24h96q0 -24 3 -38t9 -21t15 -8.5t21 -1.5t21 2t15 8t9 18t3 33q0 27 -3 43.5t-9 24.5
t-14.5 10.5t-20.5 2.5q-14 0 -26.5 -5.5t-26.5 -14.5h-86l18 207h246v-66z" />
    <glyph glyph-name="six.dnom" horiz-adv-x="333" 
d="M126 225q17 8 35 13t36 5q21 0 42 -3.5t38.5 -15.5t28.5 -34.5t11 -59.5q0 -28 -6 -52.5t-22 -42.5t-44 -28.5t-73 -10.5q-52 0 -81.5 13.5t-43.5 36.5t-17.5 54.5t-3.5 66.5v30v30q0 35 3.5 66t17.5 54t43.5 36.5t81.5 13.5q42 0 68 -8.5t40.5 -24.5t19.5 -39.5t5 -52.5
h-89q0 29 -9 42t-35 13q-18 0 -27.5 -5.5t-14 -16.5t-5 -26.5t-0.5 -34.5zM174 184q-12 0 -23.5 -4.5t-25.5 -12.5v-38q1 -33 9 -49t39 -16t39 18t9 51q0 18 -3 28.5t-9 16t-14.5 6.5t-20.5 1v-1z" />
    <glyph glyph-name="seven.dnom" horiz-adv-x="280" 
d="M159 0h-103l112 321h-158v70h263v-56z" />
    <glyph glyph-name="eight.dnom" horiz-adv-x="355" 
d="M179 397q28 0 53 -3.5t44 -14.5t30 -32t11 -56q0 -37 -12 -58t-32 -32q26 -10 41 -32.5t15 -66.5q0 -36 -12 -57.5t-33 -33t-48.5 -15t-57.5 -3.5t-57.5 3.5t-48.5 15t-33 33t-12 57.5q0 44 15 66.5t41 32.5q-20 11 -32 32t-12 58q0 35 11 56t30 32t44.5 14t53.5 3z
M179 331q-23 0 -35 -8.5t-12 -43.5q0 -17 3 -27.5t9 -15.5t14.5 -6.5t20.5 -1.5t20.5 1.5t14.5 7t9 16t3 27.5q0 35 -12 43.5t-35 8.5v-1zM179 169q-26 0 -38.5 -8.5t-12.5 -45.5t12.5 -45.5t37.5 -8.5q13 0 22.5 1.5t16 6.5t10 16t3.5 29t-3 29t-9.5 16t-16 6.5t-22.5 1.5
v2z" />
    <glyph glyph-name="nine.dnom" horiz-adv-x="334" 
d="M207 165q-17 -8 -35 -13t-36 -5q-21 0 -42 3.5t-38.5 15.5t-28.5 34t-11 60q0 28 6 52.5t22 42.5t44 28.5t73 10.5q52 0 81.5 -13.5t43.5 -37t17.5 -54.5t3.5 -66v-30v-30q0 -35 -3.5 -66t-17.5 -54t-43.5 -36.5t-81.5 -13.5q-42 0 -68 8.5t-40.5 24.5t-19.5 39.5
t-5 52.5h89q0 -29 9 -42t35 -13q18 0 27.5 5.5t14 16.5t5 26t0.5 35zM160 326q-31 0 -39 -18t-9 -51q0 -18 3 -28.5t9 -16t14.5 -6.5t20.5 -1t23.5 4.5t25.5 12.5v38q-1 33 -9 49t-39 16v1z" />
    <glyph glyph-name="zero.numr" horiz-adv-x="346" 
d="M173 706q58 0 88 -17t43 -44.5t14 -64t1 -75.5t-1 -75t-14 -64t-43 -45t-88 -17t-88 17t-43 45t-14 64t-1 75t1 75.5t14 64t43 44.5t88 17zM173 637q-20 0 -30.5 -7.5t-15 -24.5t-5 -43.5t-0.5 -64.5q0 -33 1 -56t6 -37.5t15 -21.5t29 -7q20 0 30.5 7.5t15 24.5t5 43.5
t0.5 64.5q0 33 -1 56t-6 37.5t-15 21t-29 6.5v1z" />
    <glyph glyph-name="one.numr" horiz-adv-x="214" 
d="M78 309v312l-58 -10l-13 69l113 20h58v-391h-100z" />
    <glyph glyph-name="two.numr" horiz-adv-x="314" 
d="M15 591q0 58 30 87t110 29q39 0 65 -8.5t42 -24t23 -37.5t7 -48q0 -25 -8.5 -43.5t-23 -33t-34.5 -25t-42 -18.5q-35 -12 -56 -24t-21 -40v-26h184v-70h-281v77q0 32 10 55t26.5 39t37.5 26.5t42 19.5q35 11 53.5 24.5t18.5 38.5q0 24 -10.5 35.5t-35.5 11.5
q-26 0 -36 -11t-10 -35z" />
    <glyph glyph-name="three.numr" horiz-adv-x="327" 
d="M20 600q0 35 11 56t29.5 32t43.5 14t52 3t52 -3.5t43.5 -14.5t29.5 -31.5t11 -55.5q0 -37 -12 -58t-32 -32q24 -10 38.5 -32t14.5 -65q0 -36 -11.5 -58t-31 -33t-46 -14.5t-55.5 -3.5t-55 3.5t-45.5 14.5t-31.5 32t-12 57v24h96v-13q1 -35 13 -43t36 -8q12 0 21 1.5
t15 6.5t9 16t3 29t-3 29t-9 16t-15 6.5t-21 1.5h-39v61h38q11 0 19 1.5t13.5 7t8 16t2.5 27.5q0 35 -10.5 43.5t-33.5 8.5t-34 -8.5t-11 -43.5v-12h-92z" />
    <glyph glyph-name="four.numr" horiz-adv-x="335" 
d="M318 457v-60h-42v-89h-91v89h-177v59l123 244h145v-243h42zM97 457h88v164h-8z" />
    <glyph glyph-name="five.numr" horiz-adv-x="323" 
d="M122 635l-7 -80q13 5 28.5 9.5t31.5 4.5q28 0 51.5 -3.5t40.5 -16t26.5 -37.5t9.5 -67q0 -38 -6.5 -64.5t-22.5 -43.5t-44 -25t-71 -8q-30 0 -56 3.5t-45.5 15.5t-31.5 34t-12 59v24h96q0 -24 3 -38t9 -21t15 -8.5t21 -1.5t21 2t15 8t9 18t3 33q0 27 -3 43.5t-9 24.5
t-14.5 10.5t-20.5 2.5q-14 0 -26.5 -5.5t-26.5 -14.5h-86l18 207h246v-66z" />
    <glyph glyph-name="six.numr" horiz-adv-x="333" 
d="M126 535q17 8 35 13t36 5q21 0 42 -3.5t38.5 -15.5t28.5 -34.5t11 -59.5q0 -28 -6 -52.5t-22 -42.5t-44 -28.5t-73 -10.5q-52 0 -81.5 13.5t-43.5 36.5t-17.5 54.5t-3.5 66.5v30v30q0 35 3.5 66t17.5 54t43.5 36.5t81.5 13.5q42 0 68 -8.5t40.5 -24.5t19.5 -39.5t5 -52.5
h-89q0 29 -9 42t-35 13q-18 0 -27.5 -5.5t-14 -16.5t-5 -26.5t-0.5 -34.5zM174 494q-12 0 -23.5 -4.5t-25.5 -12.5v-38q1 -33 9 -49t39 -16t39 18t9 51q0 18 -3 28.5t-9 16t-14.5 6.5t-20.5 1v-1z" />
    <glyph glyph-name="seven.numr" horiz-adv-x="280" 
d="M159 309h-103l112 321h-158v70h263v-56z" />
    <glyph glyph-name="eight.numr" horiz-adv-x="355" 
d="M179 707q28 0 53 -3.5t44 -14.5t30 -32t11 -56q0 -37 -12 -58t-32 -32q26 -10 41 -32.5t15 -66.5q0 -36 -12 -57.5t-33 -33t-48.5 -15t-57.5 -3.5t-57.5 3.5t-48.5 15t-33 33t-12 57.5q0 44 15 66.5t41 32.5q-20 11 -32 32t-12 58q0 35 11 56t30 32t44.5 14t53.5 3z
M179 641q-23 0 -35 -8.5t-12 -43.5q0 -17 3 -27.5t9 -15.5t14.5 -6.5t20.5 -1.5t20.5 1.5t14.5 7t9 16t3 27.5q0 35 -12 43.5t-35 8.5v-1zM179 479q-26 0 -38.5 -8.5t-12.5 -45.5t12.5 -45.5t37.5 -8.5q13 0 22.5 1.5t16 6.5t10 16t3.5 29t-3 29t-9.5 16t-16 6.5t-22.5 1.5
v2z" />
    <glyph glyph-name="nine.numr" horiz-adv-x="334" 
d="M207 475q-17 -8 -35 -13t-36 -5q-21 0 -42 3.5t-38.5 15.5t-28.5 34t-11 60q0 28 6 52.5t22 42.5t44 28.5t73 10.5q52 0 81.5 -13.5t43.5 -37t17.5 -54.5t3.5 -66v-30v-30q0 -35 -3.5 -66t-17.5 -54t-43.5 -36.5t-81.5 -13.5q-42 0 -68 8.5t-40.5 24.5t-19.5 39.5
t-5 52.5h89q0 -29 9 -42t35 -13q18 0 27.5 5.5t14 16.5t5 26t0.5 35zM160 636q-31 0 -39 -18t-9 -51q0 -18 3 -28.5t9 -16t14.5 -6.5t20.5 -1t23.5 4.5t25.5 12.5v38q-1 33 -9 49t-39 16v1z" />
    </font>
</defs>
</svg>
